<?xml version="1.0" standalone="no"?>
<!DOCTYPE svg PUBLIC "-//W3C//DTD SVG 1.1//EN" "http://www.w3.org/Graphics/SVG/1.1/DTD/svg11.dtd" >
<svg xmlns="http://www.w3.org/2000/svg">
<metadata>Generated by IcoMoon</metadata>
<defs>
<font id="icomoon" horiz-adv-x="512">
<font-face units-per-em="512" ascent="480" descent="-32" />
<missing-glyph horiz-adv-x="512" />
<glyph unicode="&#x20;" horiz-adv-x="256" d="" />
<glyph unicode="&#xe000;" glyph-name="home" d="M512 184.778l-256 198.713-256-198.714v81.019l256 198.713 256-198.714zM448 192v-192h-128v128h-128v-128h-128v192l192 144z" />
<glyph unicode="&#xe001;" glyph-name="office" d="M0-32h256v512h-256v-512zM160 416h64v-64h-64v64zM160 288h64v-64h-64v64zM160 160h64v-64h-64v64zM32 416h64v-64h-64v64zM32 288h64v-64h-64v64zM32 160h64v-64h-64v64zM288 320h224v-32h-224zM288-32h64v128h96v-128h64v288h-224z" />
<glyph unicode="&#xe002;" glyph-name="newspaper" d="M448 352v64h-448v-352c0-17.673 14.327-32 32-32h432c26.511 0 48 21.489 48 48v272h-64zM416 64h-384v320h384v-320zM64 320h320v-32h-320zM256 256h128v-32h-128zM256 192h128v-32h-128zM256 128h96v-32h-96zM64 256h160v-160h-160z" />
<glyph unicode="&#xe003;" glyph-name="pencil" d="M432 480c44.182 0 80-35.817 80-80 0-18.010-5.955-34.629-16-48l-32-32-112 112 32 32c13.371 10.045 29.989 16 48 16zM32 112l-32-144 144 32 296 296-112 112-296-296zM357.789 298.211l-224-224-27.578 27.578 224 224 27.578-27.578z" />
<glyph unicode="&#xe004;" glyph-name="image" d="M448 384h-384v-320h384v320zM512 448v0-448h-512v448h512zM416 96h-320v64l96 160 131.5-160 92.5 64v-32zM320 304c0-26.51 21.49-48 48-48s48 21.49 48 48c0 26.51-21.49 48-48 48s-48-21.49-48-48z" />
<glyph unicode="&#xe005;" glyph-name="images" d="M64 352v-320h448v320h-448zM480 85.333l-64 106.667-72.533-60.444-55.467 92.444-192-160v256h384v-234.667zM128 240c0-26.51 21.49-48 48-48s48 21.49 48 48c0 26.51-21.49 48-48 48s-48-21.49-48-48zM448 416h-448v-320h32v288h416z" />
<glyph unicode="&#xe006;" glyph-name="paint-format" d="M512 192v192h-96v32c0 17.6-14.4 32-32 32h-352c-17.6 0-32-14.4-32-32v-96c0-17.6 14.4-32 32-32h352c17.6 0 32 14.4 32 32v32h64v-128h-288v-64h-16c-8.837 0-16-7.163-16-16v-160c0-8.837 7.163-16 16-16h64c8.837 0 16 7.163 16 16v160c0 8.837-7.163 16-16 16h-16v32h288zM384 384h-352v32h352v-32z" />
<glyph unicode="&#xe007;" glyph-name="arrow_down2" d="M255.852 220.514l-168.459-168.492-87.541 87.534 256 256 256-256-87.517-87.534z" />
<glyph unicode="&#xe008;" glyph-name="folder-open" d="M416 0l96 256h-416l-96-256zM64 288l-64-288v416h144l64-64h208v-64z" />
<glyph unicode="&#xe009;" glyph-name="tag" d="M463.906 480h-144.281c-26.453 0-63.398-15.303-82.102-34.007l-223.495-223.495c-18.704-18.704-18.704-49.312 0-68.016l172.455-172.453c18.704-18.705 49.311-18.705 68.015 0l223.495 223.494c18.704 18.705 34.007 55.651 34.007 82.102v144.281c0 26.452-21.643 48.094-48.094 48.094zM400 320c-26.51 0-48 21.49-48 48s21.49 48 48 48 48-21.49 48-48-21.49-48-48-48z" />
<glyph unicode="&#xe00a;" glyph-name="phone" d="M352 160c-32-32-32-64-64-64s-64 32-96 64-64 64-64 96 32 32 64 64-64 128-96 128-96-96-96-96c0-64 65.75-193.75 128-256s192-128 256-128c0 0 96 64 96 96s-96 128-128 96z" />
<glyph unicode="&#xe00b;" glyph-name="address-book" d="M464 224h16c17.664 0 32 14.336 32 32v64h-48v-96zM464 448v-96h16c17.664 0 32 14.336 32 32v64h-48zM448 192v288h-416c-17.6 0-32-14.4-32-32v-448c0-17.6 14.4-32 32-32h416v224zM256 351.84c35.264 0 63.84-28.576 63.84-63.84s-28.576-63.84-63.84-63.84-63.84 28.576-63.84 63.84 28.576 63.84 63.84 63.84zM96 0h-32v448h32v-448zM352 96h-192v32c0 35.36 28.64 64 64 64h64c35.36 0 64-28.64 64-64v-32zM464 96h16c17.664 0 32 14.336 32 32v64h-48v-96z" />
<glyph unicode="&#xe00c;" glyph-name="location" d="M256 480c-88.366 0-160-71.634-160-160 0-160 160-352 160-352s160 192 160 352c0 88.366-71.635 160-160 160zM256 224c-53.020 0-96 42.98-96 96s42.98 96 96 96 96-42.98 96-96-42.98-96-96-96z" />
<glyph unicode="&#xe00d;" glyph-name="map" d="M0 384l160 64v-384l-160-64zM352 384v-384l-160 53.333v384zM512 448v-384l-128-51.2v384z" />
<glyph unicode="&#xe00e;" glyph-name="alarm" d="M256 416c-123.712 0-224-100.288-224-224s100.288-224 224-224 224 100.288 224 224-100.288 224-224 224zM256 12c-99.412 0-180 80.589-180 180 0 99.412 80.588 180 180 180 99.411 0 180-80.588 180-180 0-99.411-80.589-180-180-180zM467.392 336.413c8.021 14.026 12.608 30.271 12.608 47.587 0 53.020-42.98 96-96 96-30.909 0-58.401-14.611-75.96-37.298 65.942-13.618 122.603-52.599 159.352-106.289zM203.96 442.702c-17.558 22.687-45.051 37.298-75.96 37.298-53.020 0-96-42.98-96-96 0-17.316 4.587-33.561 12.608-47.587 36.75 53.69 93.411 92.671 159.352 106.289zM224 320h32v-160h-32v160zM256 192h96v-32h-96v32z" />
<glyph unicode="&#xe00f;" glyph-name="drawer" d="M449.248 480l33.622-285.78-37.74-4.44-30.026 255.22h-318.208l-30.026-255.22-37.74 4.44 33.621 285.78zM128 416h256v-32h-256zM128 352h256v-32h-256zM128 288h256v-32h-256zM128 224h256v-32h-256zM496 160h-480c-8.8 0-13.723-6.83-10.94-15.179l53.88-161.642c2.783-8.349 12.26-15.179 21.060-15.179h352c8.8 0 18.276 6.83 21.060 15.179l53.881 161.643c2.783 8.348-2.141 15.178-10.941 15.178zM320 96h-128v32h128v-32z" />
<glyph unicode="&#xe010;" glyph-name="redo" d="M288 355.814v124.186l192-192-192-192v126.912c-223.375 5.241-213.794-151.896-156.93-254.912-140.356 151.707-110.55 394.785 156.93 387.814z" />
<glyph unicode="&#xe011;" glyph-name="forward" d="M131.070 480c-56.864-103.016-66.445-260.152 156.93-254.912v126.912l192-192-192-192v124.186c-267.48-6.971-297.286 236.107-156.93 387.814z" />
<glyph unicode="&#xe012;" glyph-name="warning" d="M505.216 60.624l-191.984 384c-10.832 21.68-32.976 35.376-57.232 35.376s-46.4-13.696-57.232-35.376l-191.984-384c-9.92-19.84-8.864-43.408 2.8-62.288 11.664-18.848 32.256-30.336 54.432-30.336h383.952c22.192 0 42.784 11.488 54.432 30.336 11.664 18.88 12.72 42.448 2.816 62.288zM287.968 48c0-8.848-7.152-16-16-16h-32c-8.848 0-16 7.152-16 16v32c0 8.848 7.152 16 16 16h32c8.848 0 16-7.152 16-16v-32zM287.968 176c0-8.848-7.152-16-16-16h-32c-8.848 0-16 7.152-16 16v160c0 8.832 7.152 16 16 16h32c8.848 0 16-7.168 16-16v-160z" />
<glyph unicode="&#xe013;" glyph-name="bell" d="M512.75 80c0 144-128 112-128 224 0 9.28-0.894 17.21-2.524 23.964-8.415 56.509-46.078 101.86-94.886 115.68 0.433 1.974 0.66 4.016 0.66 6.105 0 16.639-14.4 30.251-32 30.251s-32-13.612-32-30.25c0-2.090 0.228-4.132 0.66-6.105-54.735-15.499-95.457-70.649-96.627-136.721-0.020-0.96-0.033-1.932-0.033-2.923 0-112.001-128-80.001-128-224.001 0-38.113 85.295-69.998 199.485-78.040 10.762-20.202 32.028-33.96 56.515-33.96s45.754 13.758 56.515 33.96c114.19 8.042 199.485 39.927 199.485 78.040 0 0.114-0.013 0.228-0.014 0.341l0.764-0.341zM413.123 52.952c-27.115-7.235-59.079-12.438-93.384-15.324-2.852 32.709-30.291 58.372-63.739 58.372s-60.887-25.663-63.739-58.372c-34.304 2.886-66.269 8.089-93.384 15.324-37.315 9.957-55.155 21.095-61.684 27.048 6.529 5.953 24.369 17.091 61.684 27.048 43.386 11.576 99.186 17.952 157.123 17.952s113.737-6.376 157.123-17.952c37.315-9.957 55.155-21.095 61.684-27.048-6.529-5.953-24.369-17.091-61.684-27.048z" />
<glyph unicode="&#xe014;" glyph-name="hammer" d="M504.998 65.512l-150.772 150.772c-9.334 9.334-24.607 9.334-33.941 0l-11.313-11.313-92 92 151.028 151.029h-160l-71.029-71.029-7.030 7.029h-33.941v-33.941l7.029-7.029-103.029-103.030 80-80 103.029 103.029 92-92-11.313-11.313c-9.334-9.334-9.334-24.607 0-33.941l150.772-150.772c9.334-9.334 24.607-9.334 33.941 0l56.568 56.568c9.335 9.333 9.335 24.607 0.001 33.941z" />
<glyph unicode="&#xe015;" glyph-name="cog" d="M466.895 174.875c-26.863 46.527-10.708 106.152 36.076 133.244l-50.313 87.146c-14.375-8.427-31.088-13.259-48.923-13.259-53.768 0-97.354 43.873-97.354 97.995h-100.629c0.133-16.705-4.037-33.641-12.979-49.126-26.862-46.528-86.578-62.351-133.431-35.379l-50.312-87.146c14.485-8.236 27.025-20.294 35.943-35.739 26.819-46.454 10.756-105.96-35.854-133.112l50.313-87.146c14.325 8.348 30.958 13.127 48.7 13.127 53.598 0 97.072-43.596 97.35-97.479h100.627c-0.043 16.537 4.136 33.285 12.983 48.609 26.818 46.453 86.388 62.297 133.207 35.506l50.313 87.145c-14.39 8.233-26.846 20.249-35.717 35.614zM256 120.334c-57.254 0-103.668 46.412-103.668 103.667 0 57.254 46.413 103.667 103.668 103.667s103.666-46.413 103.666-103.667c-0.001-57.255-46.412-103.667-103.666-103.667z" />
<glyph unicode="&#xe016;" glyph-name="search" d="M496.131 44.302l-121.276 103.147c-12.537 11.283-25.945 16.463-36.776 15.963 28.628 33.534 45.921 77.039 45.921 124.588 0 106.039-85.961 192-192 192s-192-85.961-192-192 85.961-192 192-192c47.549 0 91.054 17.293 124.588 45.922-0.5-10.831 4.68-24.239 15.963-36.776l103.147-121.276c17.661-19.623 46.511-21.277 64.11-3.678s15.946 46.449-3.677 64.11zM192 160c-70.692 0-128 57.308-128 128s57.308 128 128 128 128-57.308 128-128-57.307-128-128-128z" />
<glyph unicode="&#xe017;" glyph-name="key" d="M352 480c-88.365 0-160-71.634-160-160 0-10.013 0.929-19.808 2.688-29.312l-194.688-194.688v-96c0-17.673 14.327-32 32-32h32v32h64v64h64v64h64l41.521 41.521c17.005-6.158 35.348-9.521 54.479-9.521 88.365 0 160 71.634 160 160s-71.635 160-160 160zM399.937 319.937c-26.51 0-48 21.49-48 48s21.49 48 48 48 48-21.49 48-48-21.49-48-48-48z" />
<glyph unicode="&#xe018;" glyph-name="lock" d="M416 256h-32v96c0 70.692-57.308 128-128 128s-128-57.308-128-128v-96h-32c-17.6 0-32-14.4-32-32v-224c0-17.6 14.4-32 32-32h320c17.6 0 32 14.4 32 32v224c0 17.6-14.4 32-32 32zM256 64c-17.673 0-32 14.327-32 32s14.327 32 32 32 32-14.327 32-32-14.327-32-32-32zM320 256h-128v96c0 35.29 28.71 64 64 64s64-28.71 64-64v-96z" />
<glyph unicode="&#xe019;" glyph-name="bars" d="M0 64h512v-64h-512zM64 192h64v-96h-64zM160 320h64v-224h-64zM256 224h64v-128h-64zM352 416h64v-320h-64z" />
<glyph unicode="&#xe01a;" glyph-name="stats" d="M64 32h448v-64h-512v512h64zM144 64c-26.51 0-48 21.49-48 48s21.49 48 48 48c1.414 0 2.811-0.074 4.194-0.193l51.596 85.993c-4.92 7.535-7.79 16.531-7.79 26.201 0 26.51 21.49 48 48 48s48-21.49 48-48c0-9.671-2.87-18.666-7.79-26.201l51.596-85.993c1.383 0.119 2.78 0.193 4.194 0.193 1.068 0 2.124-0.047 3.175-0.115l85.178 149.061c-5.268 7.704-8.353 17.018-8.353 27.055 0 26.51 21.49 48 48 48s48-21.49 48-48c0-26.51-21.49-48-48-48-1.070 0-2.124 0.047-3.175 0.116l-85.178-149.062c5.268-7.703 8.353-17.018 8.353-27.055 0-26.51-21.49-48-48-48s-48 21.49-48 48c0 9.67 2.87 18.666 7.789 26.201l-51.595 85.992c-1.383-0.119-2.78-0.193-4.194-0.193s-2.811 0.073-4.194 0.193l-51.596-85.993c4.92-7.534 7.79-16.53 7.79-26.2 0-26.51-21.49-48-48-48z" />
<glyph unicode="&#xe01b;" glyph-name="remove" d="M96-32h320l32 352h-384zM320 416v64h-128v-64h-160v-96l32 32h384l32-32v96h-160zM288 416h-64v32h64v-32z" />
<glyph unicode="&#xe01c;" glyph-name="signup" d="M224 82.745l-102.627 118.627 29.254 29.255 73.373-57.372 137.372 121.372 29.256-29.254zM415.886 416c0.039-0.033 0.081-0.075 0.114-0.115v-383.771c-0.033-0.039-0.075-0.081-0.114-0.114h-319.772c-0.040 0.033-0.081 0.075-0.114 0.114v383.772c0.033 0.040 0.075 0.081 0.115 0.114h-64.115v-384c0-35.2 28.8-64 64-64h320c35.2 0 64 28.8 64 64v384h-64.114zM320 416v32c0 17.673-14.327 32-32 32h-64c-17.673 0-32-14.327-32-32v-32h-64v-64h256v64h-64zM288 416h-64v32h64v-32z" />
<glyph unicode="&#xe01d;" glyph-name="menu" d="M32 384h448v-96h-448zM32 256h448v-96h-448zM32 128h448v-96h-448z" />
<glyph unicode="&#xe01e;" glyph-name="clock" d="M256 480c-141.385 0-256-114.615-256-256s114.615-256 256-256 256 114.615 256 256-114.615 256-256 256zM329.372 105.372l-105.372 105.373v141.255h64v-114.745l86.628-86.627-45.256-45.256z" />
<glyph unicode="&#xe01f;" glyph-name="download" d="M448 224h-80l-112-112-112 112h-80l-64-128v-32h512v32l-64 128zM0 32h512v-32h-512v32zM288 320v128h-64v-128h-112l144-144 144 144h-112z" />
<glyph unicode="&#xe020;" glyph-name="upload" d="M0 32h512v-32h-512zM512 96v-32h-512v32l64 128h128v-64h128v64h128zM112 320l144 144 144-144h-112v-128h-64v128z" />
<glyph unicode="&#xe021;" glyph-name="attachment" d="M344.288 311.87l-30.859 30.844-154.316-154.284c-25.566-25.555-25.566-67.011 0-92.568 25.561-25.555 67.018-25.555 92.584 0l185.177 185.147c42.622 42.599 42.622 111.676 0 154.275-42.601 42.617-111.699 42.617-154.302 0l-194.421-194.398c-0.139-0.144-0.291-0.272-0.416-0.4-59.436-59.433-59.436-155.761 0-215.172 59.411-59.412 155.767-59.412 215.212 0 0.13 0.13 0.244 0.272 0.39 0.416l0.016-0.016 132.709 132.688-30.873 30.842-132.708-132.675c-0.142-0.127-0.269-0.272-0.401-0.4-42.32-42.312-111.161-42.312-153.49 0-42.314 42.303-42.314 111.135 0 153.445 0.144 0.144 0.287 0.276 0.422 0.401l-0.021 0.028 194.447 194.392c25.519 25.53 67.056 25.53 92.591 0 25.519-25.528 25.519-67.057 0-92.566l-185.178-185.142c-8.522-8.515-22.354-8.515-30.867 0-8.5 8.496-8.5 22.346 0 30.843l154.314 154.302z" />
<glyph unicode="&#xe022;" glyph-name="eye" d="M256 384c-111.659 0-208.441-65.021-256-160 47.559-94.979 144.341-160 256-160 111.657 0 208.439 65.021 256 160-47.558 94.979-144.343 160-256 160zM382.225 299.148c30.081-19.187 55.571-44.887 74.717-75.148-19.146-30.261-44.637-55.961-74.718-75.149-37.797-24.108-81.445-36.851-126.224-36.851-44.78 0-88.428 12.743-126.225 36.852-30.080 19.186-55.57 44.886-74.717 75.148 19.146 30.262 44.637 55.962 74.717 75.148 1.959 1.25 3.938 2.461 5.929 3.65-4.979-13.664-7.704-28.411-7.704-43.798 0-70.692 57.308-128 128-128s128 57.308 128 128c0 15.387-2.725 30.134-7.704 43.799 1.99-1.189 3.969-2.401 5.929-3.651zM256 275c0-26.51-21.49-48-48-48s-48 21.49-48 48 21.49 48 48 48 48-21.49 48-48z" />
<glyph unicode="&#xe023;" glyph-name="star" d="M512 281.475l-176.89 25.704-79.11 160.291-79.108-160.291-176.892-25.704 128-124.769-30.216-176.176 158.216 83.179 158.216-83.179-30.217 176.176 128.001 124.769z" />
<glyph unicode="&#xe024;" glyph-name="info" d="M256 480c-141.385 0-256-114.615-256-256s114.615-256 256-256 256 114.615 256 256-114.615 256-256 256zM224 384h64v-64h-64v64zM320 64h-128v32h32v128h-32v32h96v-160h32v-32z" />
<glyph unicode="&#xe025;" glyph-name="cancel-circle" d="M256 480c-141.385 0-256-114.615-256-256s114.615-256 256-256 256 114.615 256 256-114.615 256-256 256zM384 306.745l-82.744-82.745 82.744-82.744v-45.256h-45.256l-82.744 82.744-82.745-82.744h-45.255v45.256l82.745 82.744-82.745 82.745v45.255h45.255l82.745-82.745 82.744 82.745h45.256v-45.255z" />
<glyph unicode="&#xe026;" glyph-name="checkmark-circle" d="M256 480c-141.385 0-256-114.615-256-256s114.615-256 256-256 256 114.615 256 256-114.615 256-256 256zM208 64l-106 138 47 49 59-75 185 151 23-23-208-240z" />
<glyph unicode="&#xe027;" glyph-name="spam" horiz-adv-x="496" d="M496 224c0-136.997-111.043-248-248-248s-248 111.003-248 248c0 136.917 111.043 248 248 248s248-111.083 248-248zM248 174c-25.405 0-46-20.595-46-46s20.595-46 46-46 46 20.595 46 46-20.595 46-46 46zM204.327 339.346l7.418-136c0.347-6.364 5.609-11.346 11.982-11.346h48.546c6.373 0 11.635 4.982 11.982 11.346l7.418 136c0.375 6.874-5.098 12.654-11.982 12.654h-63.383c-6.884 0-12.356-5.78-11.981-12.654z" />
<glyph unicode="&#xe028;" glyph-name="close" d="M458.624 378.528l-48.096 48.096-154.528-154.528-154.528 154.528-48.096-48.096 154.528-154.528-154.528-154.528 48.096-48.096 154.528 154.528 154.528-154.528 48.096 48.096-154.528 154.528z" />
<glyph unicode="&#xe029;" glyph-name="checkmark" d="M460.522 411.478l-289.739-289.739-119.305 119.305-51.13-51.13 170.435-170.435 340.87 340.87z" />
<glyph unicode="&#xe02a;" glyph-name="plus" d="M508 260h-216v216h-72.001v-216h-216v-72.001h216v-216h72.001v216h216z" />
<glyph unicode="&#xe02b;" glyph-name="minus" d="M4 260h504v-72h-504v72z" />
<glyph unicode="&#xe02c;" glyph-name="loop" d="M437.011 405.010c-46.326 46.328-110.318 74.99-181.011 74.99-109.744 0-203.345-69.064-239.749-166.094l59.938-22.477c27.302 72.773 97.503 124.571 179.811 124.571 53.020 0 101.010-21.5 135.753-56.247l-71.753-71.753h192v192l-74.989-74.99zM256 32c-53.020 0-101.013 21.496-135.756 56.244l71.756 71.756h-192v-192l74.997 74.997c46.323-46.331 110.309-74.997 181.003-74.997 109.745 0 203.346 69.064 239.75 166.094l-59.938 22.477c-27.302-72.773-97.503-124.571-179.812-124.571z" />
<glyph unicode="&#xe02d;" glyph-name="facebook" d="M287.935-32h-95.935v256h-64v88.225l64 0.029-0.104 51.976c0 71.976 19.517 115.77 104.299 115.77h70.588v-88.242h-44.115c-33.016 0-34.603-12.328-34.603-35.342l-0.131-44.162h79.345l-9.352-88.225-69.927-0.029-0.065-256z" />
<glyph unicode="&#xe02e;" glyph-name="twitter" d="M512 382.791c-18.838-8.354-39.082-14.001-60.33-16.54 21.686 13 38.343 33.585 46.186 58.115-20.298-12.039-42.778-20.78-66.705-25.49-19.16 20.415-46.461 33.17-76.673 33.17-58.011 0-105.044-47.029-105.044-105.039 0-8.233 0.929-16.25 2.72-23.939-87.3 4.382-164.701 46.2-216.509 109.753-9.042-15.514-14.223-33.558-14.223-52.809 0-36.444 18.544-68.596 46.73-87.433-17.219 0.546-33.416 5.271-47.577 13.139-0.010-0.438-0.010-0.878-0.010-1.321 0-50.894 36.209-93.348 84.261-103-8.813-2.4-18.094-3.686-27.674-3.686-6.769 0-13.349 0.66-19.764 1.886 13.368-41.73 52.16-72.103 98.126-72.948-35.95-28.175-81.243-44.967-130.458-44.967-8.479 0-16.84 0.497-25.058 1.47 46.486-29.805 101.701-47.197 161.021-47.197 193.211 0 298.868 160.062 298.868 298.872 0 4.554-0.103 9.084-0.305 13.59 20.528 14.81 38.336 33.31 52.418 54.374z" />
<glyph unicode="&#xe02f;" glyph-name="envelope" d="M480 416h-448c-17.6 0-32-14.4-32-32v-320c0-17.6 14.4-32 32-32h448c17.6 0 32 14.4 32 32v320c0 17.6-14.4 32-32 32zM186.592 167.264l-96-69.824c-3.2-2.336-6.912-3.456-10.56-3.456-5.568 0-11.040 2.56-14.56 7.424-5.856 8.032-4.064 19.296 3.968 25.152l96 69.824c8.032 5.856 19.296 4.064 25.152-3.968s4.064-19.296-3.968-25.152zM446.56 101.408c-3.52-4.832-9.024-7.424-14.56-7.424-3.68 0-7.36 1.12-10.56 3.456l-96 69.824c-8.032 5.856-9.824 17.088-3.968 25.152s17.12 9.824 25.152 3.968l96-69.824c8.032-5.856 9.824-17.12 3.968-25.152zM442.592 321.44l-176-128c-3.168-2.304-6.88-3.456-10.592-3.456s-7.424 1.152-10.592 3.456l-176 128c-8.032 5.856-9.824 17.088-3.968 25.152s17.12 9.824 25.152 3.968l165.408-120.288 165.408 120.288c8.032 5.856 19.296 4.064 25.152-3.968s4.064-19.296-3.968-25.152z" />
<glyph unicode="&#xe030;" glyph-name="books" d="M288.117 335.365l121.356 40.716 101.792-303.392-121.356-40.716zM0 32h128v352h-128v-352zM32 320h64v-32h-64v32zM160 32h128v352h-128v-352zM192 320h64v-32h-64v32z" />
<glyph unicode="&#xe031;" glyph-name="heart" d="M368 448c-38.464 0-69.296-13.808-96.48-41.008-0.016-0.016-0.032-0.032-0.048-0.048h-0.016l-15.456-19.472-15.456 18.288c-0.016 0.016-0.032 0.032-0.048 0.048h-0.016c-27.2 27.216-58.016 42.192-96.48 42.192s-74.624-14.976-101.824-42.176c-27.184-27.2-42.176-63.36-42.176-101.824 0-38.432 14.96-74.592 42.128-101.776l191.152-192.752c6-6.064 14.192-9.472 22.72-9.472s16.72 3.408 22.72 9.472l191.136 192.752c27.168 27.184 42.144 63.328 42.144 101.776 0 38.464-14.992 74.624-42.176 101.824-27.2 27.2-63.36 42.176-101.824 42.176v0z" />
<glyph unicode="&#xe032;" glyph-name="coffee" d="M450.016 256h-434.016c-8.832 0-16-7.168-16-16 0-48.8 9.952-96.64 28.768-138.368 18.496-41.024 45.024-75.072 76.704-98.496 2.752-2.048 6.080-3.136 9.504-3.136h-67.008c-8.832 0-16-7.168-16-16s7.168-16 16-16h320c8.832 0 16 7.168 16 16s-7.168 16-16 16h-67.008c3.424 0 6.752 1.088 9.504 3.136 29.152 21.568 53.952 52.16 72.128 88.864h3.36c50.688 0 81.248 17.696 97.952 32.544 20.064 17.824 32.032 42.304 32.032 65.44 0 36.384-29.6 66.016-66.016 66.016zM460.032 151.456c-10.784-9.568-30.048-20.8-62.24-23.040 9.888 28.864 15.872 59.872 17.632 91.584h34.56c16.544 0 30.016-13.472 30.016-30.016 0-10.048-5.248-25.472-19.968-38.56zM144 288c-8.832 0-16 7.168-16 16v64c0 8.832 7.168 16 16 16s16-7.168 16-16v-64c0-8.832-7.168-16-16-16zM208 288c-8.832 0-16 7.168-16 16v128c0 8.832 7.168 16 16 16s16-7.168 16-16v-128c0-8.832-7.168-16-16-16zM272 288c-8.832 0-16 7.168-16 16v64c0 8.832 7.168 16 16 16s16-7.168 16-16v-64c0-8.832-7.168-16-16-16z" />
<glyph unicode="&#xe033;" glyph-name="file" d="M352-32l-96 112 40.736 40.736 55.264-55.616 128 126.88 32-32-160-192zM458.912 365.472c-11.104 15.136-26.592 32.864-43.584 49.856s-34.72 32.48-49.856 43.584c-25.792 18.912-38.304 21.088-45.472 21.088h-248c-22.048 0-40-17.952-40-40v-432c0-22.048 17.952-40 40-40h200c8.832 0 16 7.168 16 16s-7.168 16-16 16h-200c-4.32 0-8 3.648-8 8v432c0 4.32 3.68 8 8 8 0 0 247.968 0 248 0v-112c0-8.832 7.168-16 16-16h112v-80c0-8.832 7.168-16 16-16s16 7.168 16 16v80c0 7.168-2.176 19.68-21.088 45.472zM352 352v76.96c11.488-8.896 25.344-20.928 40.672-36.288s27.392-29.184 36.288-40.672h-76.992z" />
<glyph unicode="&#xe034;" glyph-name="calendar" d="M160 288h64v-64h-64zM256 288h64v-64h-64zM352 288h64v-64h-64zM64 96h64v-64h-64zM160 96h64v-64h-64zM256 96h64v-64h-64zM160 192h64v-64h-64zM256 192h64v-64h-64zM352 192h64v-64h-64zM64 192h64v-64h-64zM416 480v-32h-64v32h-224v-32h-64v32h-64v-512h480v512h-64zM448 0h-416v352h416v-352z" />
<glyph unicode="&#xe035;" glyph-name="file2" d="M458.912 365.472c-11.104 15.136-26.592 32.864-43.584 49.856s-34.72 32.48-49.856 43.584c-25.792 18.912-38.304 21.088-45.472 21.088h-248c-22.048 0-40-17.952-40-40v-432c0-22.048 17.952-40 40-40h368c22.048 0 40 17.952 40 40v312c0 7.168-2.176 19.68-21.088 45.472zM392.672 392.672c15.36-15.36 27.392-29.184 36.288-40.672h-76.992v76.96c11.488-8.896 25.344-20.928 40.672-36.288zM448 8c0-4.352-3.648-8-8-8h-368c-4.32 0-8 3.648-8 8v432c0 4.32 3.68 8 8 8 0 0 247.968 0 248 0v-112c0-8.832 7.168-16 16-16h112v-312zM368 64h-224c-8.832 0-16 7.168-16 16s7.168 16 16 16h224c8.832 0 16-7.168 16-16s-7.168-16-16-16zM368 128h-224c-8.832 0-16 7.168-16 16s7.168 16 16 16h224c8.832 0 16-7.168 16-16s-7.168-16-16-16zM368 192h-224c-8.832 0-16 7.168-16 16s7.168 16 16 16h224c8.832 0 16-7.168 16-16s-7.168-16-16-16z" />
<glyph unicode="&#xe036;" glyph-name="file_pdf" d="M352 352h116.064c-2.496 4.032-5.504 8.512-9.152 13.472-11.104 15.136-26.592 32.864-43.584 49.856s-34.72 32.48-49.856 43.584c-4.96 3.648-9.44 6.656-13.472 9.152v-116.064zM336 320c-8.832 0-16 7.168-16 16v144h-248c-22.048 0-40-17.952-40-40v-432c0-22.048 17.952-40 40-40h368c22.048 0 40 17.952 40 40v312h-144zM368 64h-224c-8.832 0-16 7.168-16 16s7.168 16 16 16h224c8.832 0 16-7.168 16-16s-7.168-16-16-16zM368 128h-224c-8.832 0-16 7.168-16 16s7.168 16 16 16h224c8.832 0 16-7.168 16-16s-7.168-16-16-16zM368 192h-224c-8.832 0-16 7.168-16 16s7.168 16 16 16h224c8.832 0 16-7.168 16-16s-7.168-16-16-16z" />
<glyph unicode="&#xe037;" glyph-name="fiche" d="M153.766 361.022c0.85-36.632 29.35-40.234 29.35-40.234s119.066 0 148.45 0c24.216 0 28.484 30.4 29.216 41.124h-1.3l1.468 0.026c0 52.916-48.5 44.834-48.5 44.834 0 53.66-55.834 51.45-55.834 51.45-59.534 0-58.068-51.45-58.068-51.45-47.766 0-45.566-44.834-45.566-44.834l0.784-0.916zM256.618 425.89c15.816 0 28.65-12.834 28.65-28.658 0-15.834-12.834-28.674-28.65-28.674-15.834 0-28.666 12.84-28.666 28.674-0.002 15.824 12.832 28.658 28.666 28.658zM484.35 361.914h-100.482c5.732-71.166-46.416-67.574-46.416-67.574h-157.268c-52.166 0-51.284 54.192-50.266 67.574h-102.252c-15.29 0-27.666-12.4-27.666-27.642v-310.174c0-15.284 12.376-27.684 27.666-27.684h456.682c15.268 0 27.65 12.4 27.65 27.684v310.174c0.002 15.242-12.38 27.642-27.648 27.642zM302.066 218.472h143.050c9.116 0 16.534-4.292 16.534-13.426 0-9.132-7.418-13.408-16.534-13.408h-143.050c-9.15 0-16.548 4.276-16.548 13.408 0 9.136 7.398 13.426 16.548 13.426zM154.834 251.714c24.548 0 44.45-19.908 44.45-44.466 0-24.55-19.9-44.466-44.45-44.466-24.568 0-44.484 19.916-44.484 44.466 0 24.558 19.916 44.466 44.484 44.466zM242.65 81.214h-174.916v53.632c0 0-0.734 19.85 46.292 30.9l41.892-36.034 34.55 34.548c0 0 52.184-4.398 52.184-36.016v-47.030zM368.316 85.814h-68.1c-8.518 0-15.434 3.784-15.434 12.3 0 8.534 6.916 12.316 15.434 12.316h68.1c8.518 0 15.434-3.784 15.434-12.316 0-8.516-6.916-12.3-15.434-12.3zM446.952 137.98h-146.002c-8.932 0-16.166 4.102-16.166 13.034 0 8.934 7.234 13.034 16.166 13.034h146.002c8.932 0 16.166-4.1 16.166-13.034 0-8.932-7.236-13.034-16.166-13.034z" />
<glyph unicode="&#xe038;" glyph-name="disk" d="M432 480h-416c-8.8 0-16-7.2-16-16v-480c0-8.8 7.2-16 16-16h480c8.8 0 16 7.2 16 16v416l-80 80zM128 464h256v-128c0-8.8-7.2-16-16-16h-224c-8.8 0-16 7.2-16 16v128zM448-16h-384v208c0 17.664 14.336 32 32 32h320c17.664 0 32-14.336 32-32v-208zM288 448h64v-96h-64v96zM128 192h256v-32h-256v32zM128 128h256v-32h-256v32zM128 64h256v-32h-256v32z" />
<glyph unicode="&#xe039;" glyph-name="computer" d="M0 448v-320h512v320h-512zM480 160h-448v256h448v-256zM336 96h-160l-16-64-32-32h256l-32 32zM48 252h416v-8h-416zM48 268h416v-8h-416zM48 236h416v-8h-416zM48 284h416v-8h-416zM48 220h416v-8h-416zM48 188h416v-8h-416zM48 204h416v-8h-416zM48 380h416v-8h-416zM48 300h416v-8h-416zM48 364h416v-8h-416zM48 396h416v-8h-416zM48 316h416v-8h-416zM48 332h416v-8h-416zM48 348h416v-8h-416z" />
<glyph unicode="&#xe03a;" glyph-name="tools" d="M493.466 87.062l-241.868 241.878c-1.9 1.916-3.908 3.634-5.976 5.25 1.35 7.316 2.084 14.834 2.084 22.534 0 68.198-55.29 123.48-123.488 123.48-14.784 0-28.958-2.6-42.098-7.35l72.748-72.75c10.058-10.066 10.058-26.366 0-36.432l-37.618-37.616c-10.058-10.050-26.366-10.050-36.408 0l-72.764 72.766c-4.75-13.15-7.366-27.316-7.366-42.098 0-68.214 55.298-123.498 123.504-123.498 8.008 0 15.824 0.784 23.408 2.234 1.534-1.916 3.158-3.784 4.942-5.566l241.87-241.862c25.632-25.648 67.232-25.648 92.88 0l6.15 6.15c25.65 25.666 25.666 67.248 0 92.88zM444-0.802c-21.032 0-38.064 17.034-38.064 38.066 0 21.016 17.034 38.066 38.064 38.066 21.018 0 38.050-17.050 38.050-38.066 0.016-21.034-17.032-38.066-38.050-38.066zM103.492 90.012h-35.716l-59.374-97.48 23.074-23.068 97.482 59.382v35.7l75.432 75.432-25.474 25.464-75.424-75.43zM436.036 442.52c3.616 3.616 9.5 3.616 13.132 0 3.632-3.632 3.632-9.5 0-13.15l-134.214-134.18 16.65-16.65 134.196 134.214c3.632 3.616 9.5 3.616 13.132 0 3.632-3.634 3.632-9.516 0-13.134l-134.198-134.212 20.584-20.584 130.262 130.28c21.768 21.75 21.768 57.032 0 78.814l-5.25 5.25c-21.766 21.766-57.064 21.766-78.814 0l-130.28-130.264 20.6-20.582 134.2 134.198z" />
<glyph unicode="&#xe03b;" glyph-name="reminder" d="M204.584 437.482c-21.118 25.952-53.303 42.518-89.371 42.518-63.627 0-115.213-51.585-115.213-115.204 0-29.602 11.176-56.586 29.519-77.003 28.234 75.886 94.186 133.372 175.065 149.689zM396.777 480c-36.051 0-68.252-16.566-89.369-42.518 80.887-16.317 146.84-73.804 175.057-149.689 18.367 20.417 29.535 47.401 29.535 77.003 0 63.619-51.586 115.204-115.223 115.204zM463.305 195.605c0 110.871-87.137 201.392-196.666 206.774v32.652c8.143 3.884 13.826 12.134 13.826 21.784 0 13.368-10.834 24.185-24.201 24.185s-24.209-10.817-24.209-24.185c0-10.1 6.2-18.733 14.975-22.367v-32.018c-110.047-4.833-197.808-95.587-197.808-206.825 0-71.186 35.935-133.971 90.646-171.223l-25.56-25.551c-6.816-6.834-6.816-17.885 0-24.719 6.825-6.816 17.884-6.816 24.701 0l32.576 32.586c25.859-11.617 54.503-18.135 84.679-18.135 30.168 0 58.818 6.518 84.67 18.135l32.568-32.586c6.834-6.816 17.883-6.816 24.701 0 6.834 6.834 6.834 17.885 0 24.719l-25.535 25.551c54.703 37.253 90.637 100.038 90.637 171.223zM256.264 35.084c-88.662 0-160.54 71.869-160.54 160.521 0 88.67 71.878 160.557 160.54 160.557 88.67 0 160.539-71.887 160.539-160.557 0-88.652-71.869-160.521-160.539-160.521zM316.699 195.572h-47.436v89.004c0 8.75-7.092 15.851-15.85 15.851-8.742 0-15.843-7.101-15.843-15.851v-106.070c0-1.15 0.142-2.266 0.384-3.367 1.016-9.232 8.75-16.434 18.242-16.434h60.502c10.201 0 18.451 8.25 18.451 18.451 0.001 10.184-8.249 18.416-18.45 18.416z" />
<glyph unicode="&#xe03c;" glyph-name="arrow_down" d="M255.852 227.064l-168.459 168.492-87.541-87.534 256-256 256 256-87.517 87.534z" />
<glyph unicode="&#xe03d;" glyph-name="menu3" d="M128 367c0-8.284-6.716-15-15-15h-98c-8.284 0-15 6.716-15 15v98c0 8.284 6.716 15 15 15h98c8.284 0 15-6.716 15-15v-98zM128 175c0-8.284-6.716-15-15-15h-98c-8.284 0-15 6.716-15 15v98c0 8.284 6.716 15 15 15h98c8.284 0 15-6.716 15-15v-98zM128-17c0-8.284-6.716-15-15-15h-98c-8.284 0-15 6.716-15 15v98c0 8.284 6.716 15 15 15h98c8.284 0 15-6.716 15-15v-98zM512 367c0-8.284-6.716-15-15-15h-290c-8.284 0-15 6.716-15 15v98c0 8.284 6.716 15 15 15h290c8.284 0 15-6.716 15-15v-98zM512 175c0-8.284-6.716-15-15-15h-290c-8.284 0-15 6.716-15 15v98c0 8.284 6.716 15 15 15h290c8.284 0 15-6.716 15-15v-98zM512-17c0-8.284-6.716-15-15-15h-290c-8.284 0-15 6.716-15 15v98c0 8.284 6.716 15 15 15h290c8.284 0 15-6.716 15-15v-98z" />
<glyph unicode="&#xe03e;" glyph-name="door" d="M448 192v-128h-160v-96l-192 96v416h352v-298h-32v266h-256l128-64v-288h128v96h32z" />
<glyph unicode="&#xe03f;" glyph-name="bookmark" d="M96 480v-512l160 160 160-160v512z" />
<glyph unicode="&#xe040;" glyph-name="enter" d="M192 224h-160v64h160v64l96-96-96-96zM512 480v-416l-192-96v96h-192v128h32v-96h160v288l128 64h-288v-128h-32v160z" />
<glyph unicode="&#xe041;" glyph-name="exit" d="M384 160v64h-160v64h160v64l96-96zM352 192v-128h-160v-96l-192 96v416h352v-160h-32v128h-256l128-64v-288h128v96z" />
<glyph unicode="&#xe042;" glyph-name="cog2" d="M512 175.953v96.094l-73.387 12.231c-2.979 9.066-6.611 17.834-10.847 26.25l43.227 60.517-67.948 67.949-60.413-43.152c-8.455 4.277-17.269 7.944-26.384 10.951l-12.201 73.207h-96.094l-12.201-73.208c-9.115-3.007-17.929-6.674-26.383-10.951l-60.414 43.152-67.949-67.949 43.227-60.518c-4.235-8.415-7.867-17.183-10.846-26.249l-73.387-12.23v-96.094l73.559-12.26c2.98-8.984 6.605-17.674 10.821-26.015l-43.374-60.724 67.949-67.948 60.827 43.447c8.301-4.175 16.945-7.764 25.882-10.717l12.289-73.736h96.094l12.289 73.737c8.937 2.953 17.581 6.542 25.883 10.716l60.826-43.446 67.948 67.948-43.372 60.723c4.216 8.341 7.839 17.031 10.82 26.016l73.559 12.259zM256 160c-35.346 0-64 28.653-64 64s28.654 64 64 64c35.347 0 64-28.654 64-64s-28.653-64-64-64z" />
<glyph unicode="&#xe043;" glyph-name="link" d="M456.916 423.079l-1.834 1.841c-42.856 42.849-112.973 42.849-155.821 0l-99.279-99.291c-42.849-42.848-42.849-112.967 0-155.813l1.833-1.833c3.565-3.573 7.35-6.793 11.259-9.766l36.345 36.346c-4.234 2.501-8.25 5.496-11.888 9.13l-1.841 1.841c-23.265 23.26-23.265 61.118 0 84.388l99.288 99.282c23.266 23.267 61.119 23.267 84.386 0l1.841-1.832c23.261-23.266 23.261-61.128 0-84.388l-44.921-44.921c7.798-19.258 11.493-39.782 11.168-60.259l69.462 69.462c42.849 42.85 42.849 112.968-0.002 155.816zM310.187 280.019c-3.565 3.565-7.35 6.792-11.259 9.76l-36.345-36.337c4.235-2.502 8.25-5.497 11.888-9.131l1.841-1.84c23.266-23.266 23.266-61.118 0-84.387l-99.288-99.29c-23.267-23.262-61.12-23.262-84.387 0l-1.841 1.841c-23.26 23.268-23.26 61.12 0 84.387l44.922 44.921c-7.799 19.257-11.492 39.783-11.168 60.259l-69.461-69.459c-42.85-42.848-42.85-112.968 0-155.82l1.833-1.836c42.857-42.846 112.972-42.846 155.822 0l99.281 99.285c42.849 42.848 42.849 112.973 0 155.821l-1.833 1.832z" />
<glyph unicode="&#xe044;" glyph-name="monitor" d="M48 348h416v-8h-416v8zM48 316h416v-8h-416v8zM48 364h416v-8h-416v8zM48 332h416v-8h-416v8zM48 380h416v-8h-416v8zM464 260v8h-14.5c4.7-2.4 9.2-5.1 13.7-8h0.8zM48 396h416v-8h-416v8zM464 284h-58.7c9-2 17.9-4.6 26.6-8h32.1v8zM48 300h416v-8h-416v8zM198.7 160h-166.7v256h448v-168.3c4.3-3.5 8.4-7.3 12.4-11.3 7.3-7.3 13.8-15.1 19.6-23.2v234.8h-512v-320h192.8c1 10.8 2.9 21.5 5.9 32zM48 180h157.7c1.1 2.7 2.3 5.4 3.6 8h-161.3v-8zM48 196h165.3c1.5 2.7 3 5.4 4.6 8h-169.9v-8zM192.8 96h-16.8l-16-64-32-32h104.3c-23.3 28.1-36.4 61.7-39.5 96zM48 228h187.7c2.4 2.7 4.9 5.4 7.5 8h-195.2v-8zM48 244h203.6c3.2 2.8 6.4 5.5 9.7 8h-213.3v-8zM48 260h224.7c4.5 2.9 9 5.6 13.7 8h-238.4v-8zM48 212h175.2c1.9 2.7 3.8 5.4 5.9 8h-181.1v-8zM48 276h256c8.7 3.4 17.5 6.1 26.6 8h-282.6v-8zM224 112.5c0-78.9 64.6-143.5 143.5-143.5s143.5 64.6 143.5 143.5-64.6 143.5-143.5 143.5-143.5-64.6-143.5-143.5zM324.5 33.6l-50.2 50.2 50.2 50.2v-35.9h57.4v-28.7h-57.4v-35.8zM410.5 191.4l50.2-50.2-50.2-50.2v35.9h-57.4v28.7h57.4v35.8z" />
<glyph unicode="&#xe045;" glyph-name="briefcase" d="M0.007 255.844c0 0 145.799-57.333 254.923-57.333 119.265 0 257.048 57.866 257.048 57.866v93.491c0 35.766-35.233 34.183-35.233 34.183h-136.199v31.709c0 35.25-33.1 33.642-33.1 33.642h-103.607c-32.575 0-33.642-34.175-33.642-34.175v-31.175h-136.716c-34.708 0-33.475-34.183-33.475-34.183v-94.025zM289.812 224.262l-68.882-0.476c0 0 0.533 7.642 0.533 17.091 0 9.434 7.65 17.092 17.083 17.092h34.184c9.449 0 17.082-7.658 17.082-17.092 0-9.449 0-16.615 0-16.615zM203.839 399.21c0 15.483 17.091 16.55 17.091 16.55h68.882c18.167 0 17.101-18.675 17.101-18.675l-0.534-13.033h-102.54v15.158zM511.979 66.236v156.367c0 0-110.899-55.358-257.765-55.358-135.107 0-254.207 56.983-254.207 56.983v-157.991c0-34.707 32.941-34.174 32.941-34.174h444.33c36.833-0.001 34.701 34.173 34.701 34.173zM290.279 125.887c0-9.417-7.633-16.533-17.083-16.533h-34.174c-9.442 0-17.092 7.116-17.092 16.533 0 9.449 0 17.641 0 17.641l68.882 0.534c0 0-0.533-8.726-0.533-18.175z" />
<glyph unicode="&#xe046;" glyph-name="briefcase2" d="M480 352h-128v32c0 17.6-14.4 32-32 32h-128c-17.602 0-32-14.4-32-32v-32h-128c-17.6 0-32-14.4-32-32v-288c0-17.601 14.398-32 32-32h448c17.6 0 32 14.399 32 32v288c0 17.6-14.4 32-32 32zM192 383.942c0.017 0.020 0.037 0.041 0.057 0.058h127.886c0.021-0.017 0.041-0.038 0.059-0.058v-31.942h-128.002v31.942zM480 224h-64v-48c0-8.801-7.2-16-16-16h-32c-8.802 0-16 7.199-16 16v48h-192v-48c0-8.801-7.2-16-16-16h-32c-8.801 0-16 7.199-16 16v48h-64v32h448v-32z" />
<glyph unicode="&#xe047;" glyph-name="menu-2" d="M0 384h320v-96h-320v96zM0 256h320v-96h-320v96zM0 128h320v-96h-320v96zM368 192l96-96 96 96h-192zM560 224l-96 96-96-96h192z" />
<glyph unicode="&#xe048;" glyph-name="cash" d="M146.189 259.98c-80.625 0-145.99-65.356-145.99-145.981 0-80.66 65.366-145.999 145.99-145.999 80.633 0 145.989 65.339 145.989 145.999 0.001 80.625-65.355 145.981-145.989 145.981zM169.808 18.421h-47.228v191.103h47.228v-191.103zM482.143 384.318h-296.286v-63.114h296.285v63.114zM208.707 285.14c31.161-11.037 58.017-34.977 77.598-60.821h225.695v64.114h-303.293v-3.293zM308.612 32.548h171.388v63.114h-156.029c-1.362-21.393-6.714-44.646-15.359-63.114zM322.923 129.434h157.553v62.095h-174.753c9.252-18.358 15.286-40.611 17.2-62.095zM215.915 480v-63.096h296.285v63.096h-296.285z" />
<glyph unicode="&#xe049;" glyph-name="cash1" d="M430.402 57.9c20.684 14.366 68.316 183.883-131.25 294.45h-84.933c-199.558-110.566-151.925-280.083-131.25-294.45 43.142-35.95-12.583-71.033-12.583-71.033l-0.9-15.268c0 0 0 0 26.067 0 64.733 11.701 104.275-3.6 104.275-3.6h113.708c0 0 39.551 15.301 104.283 3.6 26.066 0 26.066 0 26.066 0l-0.899 15.268c-0.001 0-55.734 35.083-12.584 71.033zM299.635 85.35c-11.832-10.25-26.183-15.35-43.049-15.35-15.775 0-29.55 5.733-41.309 17.2-11.767 11.467-18.8 28.833-21.1 52.101h-15.667c-1.483 0-2.216 1.066-2.216 3.232 0 2.051 0.775 4.634 2.341 7.768 1.567 3.133 2.884 4.683 3.95 4.683h10.608v4.45c0 3.617 0.158 8.833 0.492 15.65h-15.175c-1.483 0-2.216 1.033-2.216 3.1 0 2.117 0.775 4.75 2.341 7.883 1.567 3.134 2.884 4.7 3.95 4.7h12.333c5.341 42.817 25.575 64.267 60.7 64.267 15.434 0 28.766-4 39.967-11.967 11.166-7.983 16.766-17.9 16.766-29.733 0-4.033-1.332-7.451-3.949-10.234-2.633-2.799-5.85-4.199-9.617-4.199-4.199 0-7.266 1.066-9.199 3.199-1.934 2.134-3.834 5.434-5.734 9.884-2.383 5.833-5.232 10.3-8.5 13.383-3.299 3.083-8.883 4.617-16.783 4.617-9.041 0-16.016-3.167-20.908-9.517-4.9-6.3-8.042-16.233-9.434-29.7h39.708c1.65 0 2.483-1.066 2.483-3.2 0-2.316-0.767-4.967-2.3-7.967-1.5-3-2.85-4.516-4-4.516h-36.884l-0.24-12.084c0-3.699 0.075-6.367 0.242-8.017h40.7c1.65 0 2.483-1.017 2.483-3.083 0-2.4-0.767-5.066-2.3-8.066-1.5-3-2.85-4.533-4-4.533h-36.142c2.883-29.5 12.333-44.268 28.375-44.268 6 0 11.484 1.434 16.466 4.334 4.967 2.866 9.75 9.616 14.367 20.232 2.967 6.9 5.5 11.167 7.65 12.884 2.133 1.684 4.416 2.517 6.899 2.517 4.95 0 8.784-1.434 11.55-4.25 2.75-2.85 4.117-6.8 4.117-11.883 0.001-12.1-5.916-23.267-17.766-33.517zM253.485 381.434h28.733l56.801 55.983v27.158h-39.25v15.425h-87.642v-15.425h-39.25v-27.158l56.775-55.983h23.833z" />
<glyph unicode="&#xe04a;" glyph-name="umbrella" d="M266.276 447.883c224.468-9.659 243.419-255.286 243.419-255.286-40.768 37.8-87.084 37.8-121.401 0-41.184 37.8-77.651 37.8-115.417 0v-138.568c6.883-75.517-58.351-106.4-109.818-72.084-20.2 13.467-17.167 61.785 6.867 54.901 51.484-65.218 54.476 13.75 54.476 13.75v142.002c-33.892 37.8-71.642 37.8-105.976 0-24.025 34.351-71.35 41.217-115.976 0 0 0 15.767 240.127 229.26 255.286l18.716 32.116 15.85-32.117z" />
<glyph unicode="&#xe04b;" glyph-name="calc" d="M464-32h-448c-8.832 0-16 7.168-16 16v480c0 8.832 7.168 16 16 16h448c8.832 0 16-7.168 16-16v-480c0-8.832-7.168-16-16-16zM32 0h416v448h-416v-448zM64 416h352v-96h-352v96zM64 288h64v-64h-64v64zM160 288h64v-64h-64v64zM256 288h64v-64h-64v64zM64 192h64v-64h-64v64zM160 192h64v-64h-64v64zM256 192h64v-64h-64v64zM64 96h64v-64h-64v64zM160 96h64v-64h-64v64zM256 96h64v-64h-64v64zM352 192h64v-160h-64v160zM352 288h64v-64h-64v64z" />
<glyph unicode="&#xe04c;" glyph-name="bubbles" horiz-adv-x="576" d="M240 480v0c132.548 0 240-86.957 240-194.224s-107.452-194.224-240-194.224c-12.729 0-25.223 0.81-37.417 2.355-51.553-51.347-111.086-60.554-170.583-61.907v12.567c32.126 15.677 58 44.233 58 76.867 0 4.553-0.356 9.024-1.015 13.397-54.279 35.607-88.985 89.994-88.985 150.945 0 107.267 107.452 194.224 240 194.224zM498 44.657c0-27.971 18.157-52.449 46-65.886v-10.771c-51.563 1.159-98.893 9.051-143.571 53.063-10.57-1.325-21.397-2.020-32.429-2.020-47.735 0-91.704 12.879-126.807 34.52 72.337 0.253 140.63 23.427 192.417 65.336 26.104 21.126 46.697 45.913 61.207 73.674 15.383 29.433 23.183 60.791 23.183 93.203 0 5.224-0.225 10.418-0.629 15.584 36.285-29.967 58.629-70.811 58.629-115.838 0-52.244-30.079-98.861-77.12-129.382-0.571-3.748-0.88-7.58-0.88-11.483z" />
<glyph unicode="&#xe04d;" glyph-name="bubble" d="M256 448c141.385 0 256-93.125 256-208s-114.615-208-256-208c-13.578 0-26.905 0.867-39.912 2.522-54.989-54.989-120.625-64.85-184.088-66.298v13.458c34.268 16.789 64 47.37 64 82.318 0 4.877-0.379 9.665-1.082 14.348-57.898 38.132-94.918 96.377-94.918 161.652 0 114.875 114.615 208 256 208z" />
<glyph unicode="&#xe04e;" glyph-name="hammer2" d="M505.087 22.125l-274.317 249.729 12.767 12.799c10.447 10.477 16.094 24.015 16.959 37.805 0.501 0.225 1.001 0.456 1.479 0.721l51.495 32.201c6.967 8.196 6.458 21.134-1.142 28.751l-89.56 89.804c-7.595 7.617-20.499 8.131-28.672 1.142l-32.118-51.634c-0.263-0.483-0.495-0.983-0.72-1.487-13.751-0.868-27.25-6.528-37.699-17.003l-48.714-48.851c-10.449-10.478-16.092-24.013-16.959-37.802-0.502-0.225-1.002-0.458-1.482-0.723l-51.493-32.203c-6.971-8.195-6.458-21.132 1.138-28.748l89.56-89.802c7.597-7.619 20.498-8.131 28.675-1.143l32.114 51.635c0.264 0.479 0.494 0.98 0.721 1.483 13.751 0.869 27.252 6.525 37.699 17.002l14.146 14.186 249.061-275.057c7.218-7.972 18.35-9.259 24.737-2.856l25.178 25.244c6.382 6.404 5.098 17.566-2.853 24.807z" />
<glyph unicode="&#xe04f;" glyph-name="archive" d="M-5.333 416h522.667v-74.667h-522.667zM32-32h448v336h-448v-336zM181.333 266.667h149.333v-37.333h-149.333v37.333z" />
<glyph unicode="&#xe050;" glyph-name="pin" d="M310.59 407.663l129.043-129.052c16.541-16.541 43.354-16.541 59.915 0.020 16.541 16.521 16.521 43.365 0 59.905l-129.062 129.043c-16.541 16.551-43.355 16.551-59.896 0.010-16.561-16.531-16.561-43.375 0-59.926zM301.139 140.117l-129.053 129.042c-16.541 16.541-43.375 16.541-59.925 0-16.531-16.541-16.541-43.374 0-59.915l129.042-129.043c16.541-16.541 43.375-16.541 59.915 0s16.541 43.375 0.021 59.916zM317.779 383.483l-134.85-96.942 135.57-135.59 96.922 134.869-97.642 97.663zM166.439 134.63l-17.042 17.042-146.774-153.334-2.483-29.997-0.19-0.2h0.17l-0.030-0.141 0.19 0.181 30.028 2.463 153.323 146.805-17.192 17.181z" />
<glyph unicode="&#xe051;" glyph-name="paste" d="M416 320v80c0 8.8-7.2 16-16 16h-112v32c0 17.6-14.4 32-32 32h-64c-17.602 0-32-14.4-32-32v-32h-112c-8.801 0-16-7.2-16-16v-320c0-8.8 7.199-16 16-16h144v-96h224l96 96v256h-96zM192 447.943c0.017 0.019 0.036 0.039 0.057 0.057h63.884c0.021-0.018 0.041-0.038 0.059-0.057v-31.943h-64v31.943zM96 352v32h256v-32h-256zM416 13.255v50.745h50.745l-50.745-50.745zM480 96h-96v-96h-160v288h256v-192z" />
<glyph unicode="&#xe052;" glyph-name="notebook" d="M449.18 448h-385.18v-64h-46.82c-8.8 0-17.18-6.264-17.18-15.064v-32c0-8.8 8.38-16.936 17.18-16.936h46.82v-32h-46.82c-8.8 0-17.18-6.264-17.18-15.064v-32c0-8.8 8.38-16.936 17.18-16.936h46.82v-32h-46.82c-8.8 0-17.18-6.264-17.18-15.064v-32c0-8.799 8.38-16.936 17.18-16.936h46.82v-32h-46.82c-8.8 0-17.18-6.264-17.18-15.064v-32c0-8.8 8.38-16.936 17.18-16.936h46.82v-64h385.18c17.674 0 30.82 15.263 30.82 32.936v416c0 17.673-13.146 31.064-30.82 31.064zM160 0h-64v32h17.18c8.8 0 14.82 8.136 14.82 16.936v32c0 8.801-6.021 15.064-14.82 15.064h-17.18v32h17.18c8.8 0 14.82 8.136 14.82 16.936v32c0 8.801-6.021 15.064-14.82 15.064h-17.18v32h17.18c8.8 0 14.82 8.136 14.82 16.936v32c0 8.801-6.021 15.064-14.82 15.064h-17.18v32h17.18c8.8 0 14.82 8.136 14.82 16.936v32c0 8.801-6.020 15.064-14.82 15.064h-17.18v32h64v-416z" />
<glyph unicode="&#xe053;" glyph-name="print" d="M128 448h256v-64h-256zM480 352h-448c-17.6 0-32-14.4-32-32v-160c0-17.6 14.398-32 32-32h96v-128h256v128h96c17.6 0 32 14.4 32 32v160c0 17.6-14.4 32-32 32zM352 32h-192v160h192v-160zM487.2 304c0-12.813-10.387-23.2-23.199-23.2s-23.201 10.387-23.201 23.2 10.388 23.2 23.201 23.2c12.813 0 23.199-10.387 23.199-23.2z" />
<glyph unicode="&#xe054;" glyph-name="zoomin" d="M496.131 44.302l-121.276 103.147c-12.537 11.283-25.945 16.463-36.776 15.963 28.628 33.534 45.921 77.039 45.921 124.588 0 106.039-85.961 192-192 192s-192-85.961-192-192 85.961-192 192-192c47.549 0 91.054 17.293 124.588 45.922-0.5-10.831 4.68-24.239 15.963-36.776l103.147-121.276c17.661-19.623 46.511-21.277 64.11-3.678s15.946 46.449-3.677 64.11zM192 160c-70.692 0-128 57.308-128 128s57.308 128 128 128 128-57.308 128-128-57.307-128-128-128zM224 384h-64v-64h-64v-64h64v-64h64v64h64v64h-64z" />
<glyph unicode="&#xe055;" glyph-name="pie" d="M224 478.016v-286.016h286.016c-15.744-126.272-123.456-224-254.016-224-141.376 0-256 114.624-256 256 0 130.56 97.728 238.272 224 254.016zM256 480v-256h256c0 141.376-114.624 256-256 256zM288 260h189.12c0.224-1.344 0.416-2.656 0.608-4h-189.76v4zM328.544 436c4.928-1.696 9.824-3.552 14.624-5.6 1.856-0.768 3.68-1.6 5.472-2.4h-60.672v8h40.544zM288 444v1.76c3.488-0.512 6.976-1.088 10.464-1.76h-10.464zM364.544 420c4.544-2.528 8.992-5.184 13.312-8h-89.856v8h76.544zM389.376 404c3.456-2.56 6.816-5.248 10.144-8h-111.52v8h101.376zM408.544 388c1.984-1.824 3.936-3.68 5.824-5.6 0.8-0.8 1.568-1.6 2.336-2.4h-128.736v8h120.544zM424.128 372c2.304-2.624 4.544-5.28 6.72-8h-142.88v8h136.128zM436.992 356c1.92-2.624 3.776-5.28 5.6-8h-154.592v8h148.992zM447.68 340c1.6-2.624 3.136-5.312 4.608-8h-164.288v8h159.68zM456.48 324c1.312-2.624 2.592-5.312 3.808-8h-172.32v8h168.48zM463.712 308c1.088-2.656 2.080-5.312 3.072-8h-178.784v8h175.712zM469.504 292c0.832-2.656 1.632-5.312 2.4-8h-183.904v8h181.504zM473.952 276c0.64-2.656 1.216-5.312 1.76-8h-187.68v8h185.952z" />
<glyph unicode="&#xe056;" glyph-name="bars2" d="M144 288h-96c-8.8 0-16-7.2-16-16v-288c0-8.8 7.2-16 16-16h96c8.8 0 16 7.2 16 16v288c0 8.8-7.2 16-16 16zM144 0h-96v128h96v-128zM304 352h-96c-8.8 0-16-7.2-16-16v-352c0-8.8 7.2-16 16-16h96c8.8 0 16 7.2 16 16v352c0 8.8-7.2 16-16 16zM304 0h-96v160h96v-160zM464 416h-96c-8.8 0-16-7.2-16-16v-416c0-8.8 7.2-16 16-16h96c8.8 0 16 7.2 16 16v416c0 8.8-7.2 16-16 16zM464 0h-96v192h96v-192z" />
<glyph unicode="&#xe057;" glyph-name="file-pdf" d="M421.006 185.26c-6.824 6.723-21.957 10.283-44.986 10.586-15.589 0.172-34.351-1.201-54.085-3.964-8.837 5.099-17.946 10.647-25.094 17.329-19.231 17.958-35.284 42.886-45.288 70.297 0.652 2.56 1.207 4.81 1.724 7.106 0 0 10.833 61.53 7.965 82.333-0.395 2.853-0.637 3.681-1.404 5.898l-0.941 2.417c-2.948 6.796-8.724 13.997-17.783 13.604l-5.458 0.172c-10.1 0-18.332-5.166-20.493-12.887-6.569-24.217 0.209-60.446 12.491-107.369l-3.144-7.643c-8.794-21.438-19.815-43.030-29.539-62.079l-1.264-2.476c-10.23-20.019-19.512-37.013-27.927-51.411l-8.688-4.594c-0.632-0.334-15.522-8.209-19.014-10.322-29.628-17.691-49.261-37.77-52.518-53.708-1.036-5.085-0.265-11.593 5.007-14.607l8.403-4.229c3.645-1.826 7.489-2.751 11.427-2.751 21.102 0 45.6 26.286 79.348 85.183 38.965 12.684 83.327 23.228 122.207 29.045 29.629-16.684 66.071-28.273 89.071-28.273 4.084 0 7.606 0.389 10.466 1.148 4.411 1.168 8.129 3.683 10.396 7.096 4.463 6.716 5.367 15.966 4.156 25.438-0.361 2.812-2.606 6.288-5.035 8.661zM105.823 72.976c3.848 10.521 19.080 31.322 41.602 49.778 1.416 1.148 4.904 4.416 8.097 7.451-23.551-37.562-39.323-52.533-49.699-57.229zM239.217 380.157c6.783 0 10.642-17.097 10.962-33.127s-3.429-27.28-8.079-35.604c-3.851 12.324-5.713 31.75-5.713 44.452 0 0-0.283 24.279 2.83 24.279zM199.426 161.253c4.725 8.458 9.641 17.378 14.665 26.839 12.246 23.158 19.979 41.278 25.739 56.173 11.455-20.842 25.722-38.56 42.493-52.756 2.092-1.771 4.309-3.551 6.637-5.325-34.105-6.748-63.582-14.955-89.534-24.931zM414.452 163.174c-2.077-1.299-8.027-2.050-11.854-2.050-12.353 0-27.636 5.647-49.063 14.833 8.234 0.609 15.781 0.919 22.55 0.919 12.391 0 16.060 0.054 28.175-3.036s12.269-9.367 10.192-10.666zM451.716 380.285l-71.432 71.431c-15.556 15.556-46.284 28.284-68.284 28.284h-240c-22 0-40-18-40-40v-432c0-22 18-40 40-40h368c22 0 40 18 40 40v304c0 22-12.728 52.729-28.284 68.285zM429.089 357.657c1.565-1.565 3.125-3.487 4.64-5.657h-81.729v81.728c2.17-1.515 4.092-3.075 5.657-4.64l71.432-71.431zM448 8c0-4.336-3.664-8-8-8h-368c-4.336 0-8 3.664-8 8v432c0 4.336 3.664 8 8 8h240c2.416 0 5.127-0.305 8-0.852v-127.148h127.148c0.547-2.873 0.852-5.583 0.852-8v-304z" />
<glyph unicode="&#xe058;" glyph-name="file-word" d="M319.889 242.054h22.106l-25.506-113.089-33.163 159.005h-53.275l-38.557-159.005-28.908 159.005h-55.697l56.546-255.941h54.419l38.147 151.354 34.128-151.354h50.168l64.815 255.941h-85.223zM451.716 380.285l-71.432 71.431c-15.556 15.556-46.284 28.284-68.284 28.284h-240c-22 0-40-18-40-40v-432c0-22 18-40 40-40h368c22 0 40 18 40 40v304c0 22-12.728 52.729-28.284 68.285zM429.089 357.657c1.565-1.565 3.125-3.487 4.64-5.657h-81.729v81.728c2.17-1.515 4.092-3.075 5.657-4.64l71.432-71.431zM448 8c0-4.336-3.664-8-8-8h-368c-4.336 0-8 3.664-8 8v432c0 4.336 3.664 8 8 8h240c2.416 0 5.127-0.305 8-0.852v-127.148h127.148c0.547-2.873 0.852-5.583 0.852-8v-304z" />
<glyph unicode="&#xe059;" glyph-name="file-excel" d="M371.514 288h-67.647l-47.866-70.516-47.87 70.516h-67.644l81.081-121.232-91.487-134.768h131.12v45.788h-30.278l25.078 37.497 55.698-83.285h70.221l-91.488 134.768zM451.716 380.285l-71.432 71.431c-15.556 15.556-46.284 28.284-68.284 28.284h-240c-22 0-40-18-40-40v-432c0-22 18-40 40-40h368c22 0 40 18 40 40v304c0 22-12.728 52.729-28.284 68.285zM429.089 357.657c1.565-1.565 3.125-3.487 4.64-5.657h-81.729v81.728c2.17-1.515 4.092-3.075 5.657-4.64l71.432-71.431zM448 8c0-4.336-3.664-8-8-8h-368c-4.336 0-8 3.664-8 8v432c0 4.336 3.664 8 8 8h240c2.416 0 5.127-0.305 8-0.852v-127.148h127.148c0.547-2.873 0.852-5.583 0.852-8v-304z" />
<glyph unicode="&#xe05a;" glyph-name="file-zip" d="M208 416h48v-32h-48zM160 384h48v-32h-48zM208 352h48v-32h-48zM160 320h48v-32h-48zM208 288h48v-32h-48zM160 256h48v-32h-48zM208 224v-32h-48v-112c0-8.837 7.163-16 16-16h64c8.837 0 16 7.163 16 16v144h-48zM240 96h-64v32h64v-32zM451.716 380.285l-71.432 71.431c-15.556 15.556-46.284 28.284-68.284 28.284h-240c-22 0-40-18-40-40v-432c0-22 18-40 40-40h368c22 0 40 18 40 40v304c0 22-12.728 52.729-28.284 68.285zM429.089 357.657c1.565-1.565 3.125-3.487 4.64-5.657h-81.729v81.728c2.17-1.515 4.092-3.075 5.657-4.64l71.432-71.431zM448 8c0-4.336-3.664-8-8-8h-368c-4.336 0-8 3.664-8 8v432c0 4.336 3.664 8 8 8h240c2.416 0 5.127-0.305 8-0.852v-127.148h127.148c0.547-2.873 0.852-5.583 0.852-8v-304z" />
<glyph unicode="&#xe05b;" glyph-name="frame" d="M512 128c0-17.664-14.336-32-32-32v-34.944c18.592-6.624 32-24.192 32-45.056 0-26.496-21.504-48-48-48-20.88 0-38.448 13.408-45.056 32h-34.944c0-17.664-14.336-32-32-32s-32 14.336-32 32h-32c0-17.664-14.336-32-32-32s-32 14.336-32 32h-32c0-17.664-14.336-32-32-32s-32 14.336-32 32h-34.944c-6.608-18.592-24.192-32-45.056-32-26.512 0-48 21.504-48 48 0 20.88 13.392 38.432 32 45.056v34.944c-17.664 0-32 14.336-32 32s14.336 32 32 32v32c-17.664 0-32 14.336-32 32s14.336 32 32 32v32c-17.664 0-32 14.336-32 32s14.336 32 32 32v34.944c-18.608 6.608-32 24.192-32 45.056 0 26.512 21.488 48 48 48 20.864 0 38.448-13.392 45.056-32h34.944c0 17.664 14.336 32 32 32s32-14.336 32-32h32c0 17.664 14.336 32 32 32s32-14.336 32-32h32c0 17.664 14.336 32 32 32s32-14.336 32-32h34.944c6.608 18.608 24.176 32 45.056 32 26.496 0 48-21.488 48-48 0-20.864-13.408-38.448-32-45.056v-34.944c17.664 0 32-14.336 32-32s-14.336-32-32-32v-32c17.664 0 32-14.336 32-32s-14.336-32-32-32v-32c17.664 0 32-14.336 32-32zM416 368c0 8.832-7.152 16-16 16h-288c-8.832 0-16-7.168-16-16v-288c0-8.848 7.168-16 16-16h288c8.848 0 16 7.152 16 16v288z" />
<glyph unicode="&#xe05c;" glyph-name="mail" d="M309.552 175.049h-105.55c-4.125 0-7.467-3.367-7.467-7.467 0-4.133 3.342-7.483 7.467-7.483h105.55c4.134 0 7.483 3.351 7.483 7.483 0 4.1-3.349 7.467-7.483 7.467zM309.552 215.482h-105.55c-4.125 0-7.467-3.334-7.467-7.467 0-4.117 3.342-7.467 7.467-7.467h105.55c4.134 0 7.483 3.35 7.483 7.467 0 4.133-3.349 7.467-7.483 7.467zM510.985 268.632c-41.017-31.316-190.983-145.983-205.217-158.75-16.483-14.767-31.851-23.3-48.899-24.45-0.018 0-0.033 0-0.033 0v0.018c-0.018 0-0.034 0-0.051 0s-0.050 0-0.050 0v-0.018c-0.017 0-0.033 0-0.050 0-17.050 1.15-32.4 9.684-48.9 24.45-14.217 12.767-164.183 127.434-205.2 158.75-1.15-4-1.8-8.216-1.8-12.583v-210.417c0-8.683 2.467-16.75 6.684-23.649l120.308 117.266c2.617 2.534 6.8 2.484 9.342-0.133 2.55-2.6 2.483-6.8-0.125-9.333l-121.050-118c8.042-7.217 18.667-11.65 30.333-11.65h421.008c11.667 0 22.267 4.434 30.316 11.65l-121.050 118c-2.6 2.533-2.649 6.733-0.1 9.333 2.533 2.617 6.733 2.667 9.333 0.133l120.301-117.266c4.232 6.899 6.699 14.967 6.699 23.649v210.417c0.001 4.367-0.665 8.583-1.799 12.583zM309.552 255.532h-105.55c-4.125 0-7.467-3.35-7.467-7.483 0-4.1 3.342-7.45 7.467-7.45h105.55c4.134 0 7.483 3.35 7.483 7.45 0 4.133-3.349 7.483-7.483 7.483zM95.102 259.315c0 0 1.191 27.517 33.5 28.717 57.508 0 91.425 0 128.133 0 0.033 0 0.066 0 0.101 0 36.699 0 69.616 0 127.116 0 32.316-1.2 33.5-28.717 33.5-28.717v-37.083l91 65.25c0 0-210.8 144.8-220.366 149.583-9.317 4.658-18.634 11.517-31.25 11.892v0.017c-0.018 0-0.034 0-0.051 0s-0.033 0-0.050 0v-0.017c-12.625-0.375-21.942-7.233-31.25-11.892-9.575-4.783-220.375-150.583-220.375-150.583l89.992-64.25v37.083z" />
<glyph unicode="&#xe05d;" glyph-name="arrow-left" d="M0 224l256-256v160h255.999l0.001 192h-256v160z" />
<glyph unicode="&#xe05e;" glyph-name="arrow-right" d="M512 224l-256 256v-160h-255.999l-0.001-192h256v-160z" />
<glyph unicode="&#xe05f;" glyph-name="arrow-right2" d="M0 160h256l-96-96 96-96 256 256-256 256-96-96 96-96h-256z" />
<glyph unicode="&#xe060;" glyph-name="arrow-left2" d="M512 288h-256l96 96-96 96-256-256 256-256 96 96-96 96h256z" />
<glyph unicode="&#xe061;" glyph-name="bulb" d="M256 480c-106.048 0-192-85.952-192-192 0-71.072 38.624-133.12 96-166.304v-121.696l32-32h128l32 32v121.696c57.376 33.184 96 95.232 96 166.304 0 106.048-85.952 192-192 192zM224 140v8h64v-8h-64zM288 132v-0.8c-10.432-2.112-21.12-3.2-32-3.2s-21.568 1.088-32 3.2v0.8h64zM224 156v8h64v-8h-64zM224 172v8h64v-8h-64zM224 188v8h64v-8h-64zM224 204v8h64v-8h-64zM224 220v8h64v-8h-64zM224 236v8h64v-8h-64zM224 252v8h64v-8h-64zM224 268v8h64v-8h-64zM224 284v8h64v-8h-64zM224 300v8h64v-8h-64zM224 316v4c0 1.344-0.096 2.688-0.256 4h64.512c-0.16-1.312-0.256-2.656-0.256-4v-4h-64zM290.336 332h-68.672c0 0 0 0 0 0-1.184 2.912-2.752 5.6-4.704 8 0 0 0 0 0 0h78.048c-1.92-2.4-3.52-5.088-4.704-8zM289.632 330.112c0 0 0-0.032 0-0.032s0 0.032 0 0.032zM222.368 330.048c0 0 0 0.032 0 0.032s0-0.032 0-0.032zM207.488 348c0 0 0 0 0 0-4.608 2.56-9.888 4-15.488 4s-10.912-1.472-15.488-4c0 0 0 0 0 0h-68.928c2.208 5.472 4.704 10.816 7.52 16-1.408-2.624-2.784-5.28-4.032-8h289.824c1.248-2.624 2.4-5.312 3.488-8h-68.928c0 0 0 0 0 0-4.608 2.56-9.888 4-15.52 4s-10.912-1.472-15.52-4c0 0 0 0 0 0h-97.024zM303.168 347.2c0 0-0.032-0.032-0.032-0.032s0.032 0.032 0.032 0.032zM301.856 346.368c-0.032 0-0.032-0.032-0.032-0.032 0.032 0 0.032 0.032 0.032 0.032zM300.608 345.44c0 0-0.032-0.032-0.032-0.032s0.032 0.032 0.032 0.032zM299.36 344.448c0 0 0 0-0.032-0.032s0 0 0.032 0.032zM298.208 343.424c0 0 0 0 0 0s0 0 0 0zM215.968 341.184c0 0 0 0 0 0s0 0 0 0zM214.912 342.336c0 0 0 0 0 0s0 0 0 0zM213.792 343.424c0 0 0 0 0 0s0 0 0 0zM212.64 344.448c0 0-0.032 0.032-0.032 0.032s0.032-0.032 0.032-0.032zM211.456 345.408c0 0-0.032 0.032-0.064 0.032s0.032-0.032 0.064-0.032zM210.176 346.336c0 0-0.032 0.032-0.064 0.032 0.032 0 0.032-0.032 0.064-0.032zM208.864 347.2c0 0-0.032 0-0.032 0.032s0.032 0 0.032-0.032zM160.256 316h-61.824c-0.224-1.312-0.448-2.624-0.64-3.968 0.608 4.032 1.376 8.032 2.272 11.968h60.192c-0.16-1.312-0.256-2.656-0.256-4s0.096-2.688 0.256-4zM102.112 332c-0.384-1.312-0.736-2.624-1.056-3.936 1.376 5.408 3.072 10.72 4.992 15.936-0.48-1.312-0.96-2.656-1.44-4h62.432c0 0 0 0 0 0-1.92-2.4-3.52-5.088-4.704-8 0 0 0 0 0 0h-60.224zM161.632 330.112c0 0 0-0.032 0-0.032s0 0.032 0 0.032zM100.064 324.032c0.32 1.312 0.64 2.656 0.96 3.968-0.352-1.312-0.672-2.624-0.96-3.968zM175.168 347.2c0 0-0.032 0-0.032-0.032s0.032 0 0.032 0.032zM173.856 346.368c0 0-0.032-0.032-0.064-0.032 0.032 0 0.032 0.032 0.064 0.032zM172.608 345.44c-0.032 0-0.032-0.032-0.064-0.032s0.032 0.032 0.064 0.032zM171.392 344.448c0 0-0.032-0.032-0.032-0.032s0.032 0.032 0.032 0.032zM170.208 343.424c0 0 0 0 0 0s0 0 0 0zM169.088 342.336c0 0 0 0 0 0s0 0 0 0zM168.032 341.184c0 0 0 0 0 0s0 0 0 0zM106.048 344.064c0.48 1.312 0.992 2.624 1.536 3.936-0.544-1.312-1.056-2.624-1.536-3.936zM350.368 309.92c0 0 0-0.032 0-0.032s0 0.032 0 0.032zM350.368 330.112c0 0 0-0.032 0-0.032s0 0.032 0 0.032zM349.664 308h65.088c-0.32 2.688-0.736 5.344-1.184 8 0.928-5.28 1.6-10.592 1.984-16h-70.592c1.92 2.4 3.52 5.088 4.704 8v0zM351.744 316c0.16 1.312 0.256 2.656 0.256 4s-0.096 2.688-0.256 4h60.224c0.608-2.656 1.152-5.312 1.632-8h-61.824zM349.664 332c-1.184 2.912-2.752 5.6-4.704 8h62.432c0.896-2.656 1.728-5.312 2.496-8h-60.224zM409.888 332c0.384-1.312 0.736-2.624 1.056-3.968-0.352 1.312-0.704 2.656-1.056 3.968zM410.976 328c0.352-1.344 0.672-2.656 0.96-4-0.32 1.344-0.64 2.688-0.96 4zM404.416 348c0.512-1.312 1.024-2.624 1.536-3.936-0.48 1.312-0.992 2.624-1.536 3.936zM405.984 343.968c0.48-1.312 0.96-2.624 1.408-3.936-0.448 1.312-0.928 2.624-1.408 3.936zM341.792 343.424c0 0 0 0 0 0s0 0 0 0zM340.64 344.448c0 0-0.032 0-0.032 0.032s0 0 0.032-0.032zM339.456 345.408c0 0-0.032 0.032-0.032 0.032s0.032-0.032 0.032-0.032zM338.176 346.336c-0.032 0-0.032 0.032-0.064 0.032 0.032 0 0.032-0.032 0.064-0.032zM336.864 347.2c0 0-0.032 0.032-0.032 0.032s0.032-0.032 0.032-0.032zM320 196h66.944c-1.92-2.72-3.936-5.376-6.048-8h-60.896v8zM320 212h76.864c1.408 2.624 2.784 5.28 4.032 8-2.592-5.472-5.472-10.816-8.672-16h-72.224v8zM320 220v8h84.416c-1.088-2.688-2.24-5.376-3.488-8h-80.928zM320 236v8h89.888c-0.768-2.688-1.6-5.344-2.496-8h-87.392zM407.392 235.968c-0.448-1.312-0.928-2.624-1.408-3.936 0.48 1.312 0.96 2.624 1.408 3.936zM405.92 231.936c-0.48-1.312-0.992-2.624-1.536-3.936 0.512 1.312 1.024 2.624 1.536 3.936zM320 252v8h93.568c-0.704-4.032-1.568-8.064-2.592-12 0.352 1.344 0.672 2.656 0.96 4h-91.936zM410.976 247.968c-0.352-1.312-0.704-2.656-1.056-3.968 0.384 1.312 0.736 2.624 1.056 3.968zM320 268v8h95.552c-0.384-5.376-1.056-10.72-1.984-16 0.448 2.656 0.864 5.312 1.184 8h-94.752zM320 284v4c5.632 0 10.912 1.472 15.52 4 0 0 0 0 0 0h80.448c-0.032 1.344-0.096 2.688-0.16 4 0.128-2.656 0.192-5.344 0.192-8s-0.064-5.344-0.192-8c0.064 1.344 0.128 2.656 0.16 4h-95.936zM415.808 279.872c-0.064-1.28-0.128-2.592-0.224-3.872 0.096 1.28 0.16 2.56 0.224 3.872zM341.792 296.576c0 0 0 0 0 0s0 0 0 0zM340.64 295.552c0 0-0.032 0-0.032-0.032s0 0 0.032 0.032zM339.456 294.592c0 0-0.032-0.032-0.032-0.032s0.032 0.032 0.032 0.032zM338.176 293.664c-0.032 0-0.032-0.032-0.064-0.032 0.032 0 0.032 0.032 0.064 0.032zM336.864 292.8c0 0-0.032-0.032-0.032-0.032s0.032 0.032 0.032 0.032zM415.552 299.968c0.096-1.28 0.16-2.56 0.224-3.872-0.064 1.28-0.128 2.592-0.224 3.872zM392.224 372.032c-0.8 1.312-1.632 2.592-2.464 3.872 0.832-1.28 1.664-2.56 2.464-3.872zM346.464 420c-2.080 1.44-4.192 2.816-6.336 4.16 7.456-4.608 14.528-9.856 21.216-15.744-1.376 1.216-2.784 2.432-4.224 3.584h-202.272c3.456 2.816 7.008 5.504 10.656 8h180.96zM165.536 420c1.056 0.704 2.080 1.408 3.168 2.112-1.056-0.704-2.112-1.408-3.168-2.112zM168.672 422.112c1.056 0.704 2.112 1.376 3.2 2.016-1.056-0.672-2.144-1.344-3.2-2.016zM171.904 424.16c1.056 0.672 2.144 1.312 3.2 1.952-1.088-0.64-2.144-1.28-3.2-1.952zM175.168 426.144c6.464 3.776 13.152 7.104 20.032 9.952-0.064-0.032-0.128-0.064-0.224-0.096h122.016c6.816-2.816 13.44-6.112 19.84-9.856-1.088 0.64-2.176 1.248-3.264 1.856h-155.168c-1.088-0.608-2.176-1.216-3.264-1.856zM336.896 426.112c1.088-0.64 2.144-1.28 3.2-1.952-1.056 0.672-2.144 1.312-3.2 1.952zM366.176 404.032c-1.312 1.248-2.656 2.464-4 3.68 1.344-1.216 2.688-2.432 4-3.68zM313.92 437.248c-0.608 0.224-1.216 0.448-1.792 0.672 0.608-0.224 1.216-0.448 1.792-0.672zM310.56 438.496c-0.64 0.224-1.248 0.448-1.888 0.672 0.64-0.224 1.248-0.448 1.888-0.672zM307.2 439.648c-0.64 0.224-1.312 0.448-1.952 0.64 0.64-0.224 1.312-0.416 1.952-0.64zM303.84 440.736c-0.672 0.224-1.376 0.416-2.048 0.64 0.672-0.192 1.376-0.416 2.048-0.64zM300.512 441.728c-0.736 0.224-1.472 0.416-2.208 0.64 0.736-0.192 1.472-0.416 2.208-0.64zM297.568 442.56c-1.888 0.512-3.776 0.992-5.696 1.408 1.92-0.448 3.808-0.896 5.696-1.408zM291.776 444h-71.584c11.616 2.624 23.584 4 35.776 4s24.192-1.376 35.776-4zM198.080 437.248c0.608 0.224 1.216 0.448 1.824 0.672-0.608-0.224-1.216-0.448-1.824-0.672zM201.44 438.496c0.64 0.224 1.28 0.448 1.888 0.672-0.64-0.224-1.28-0.448-1.888-0.672zM204.8 439.648c0.64 0.224 1.312 0.448 1.984 0.64-0.672-0.224-1.312-0.416-1.984-0.64zM208.16 440.736c0.672 0.224 1.376 0.416 2.048 0.64-0.704-0.192-1.376-0.416-2.048-0.64zM211.456 441.728c0.736 0.224 1.472 0.416 2.208 0.64-0.736-0.192-1.472-0.416-2.208-0.64zM214.432 442.56c1.92 0.512 3.84 0.992 5.76 1.44-1.92-0.448-3.84-0.928-5.76-1.44zM149.856 407.712c-1.376-1.216-2.72-2.432-4.032-3.712h220.416c0.992-0.928 1.984-1.888 2.944-2.848 1.696-1.696 3.328-3.392 4.896-5.152h-236.096c-2.4-2.592-4.672-5.28-6.88-8h249.824c-2.176 2.72-4.48 5.376-6.848 8 5.76-6.272 10.944-12.928 15.552-19.904-0.864 1.312-1.76 2.624-2.656 3.904h-261.92c-0.896-1.28-1.792-2.592-2.656-3.904 5.888 8.928 12.736 17.312 20.48 25.024 2.272 2.272 4.608 4.448 6.976 6.56v0zM154.848 412c-1.408-1.152-2.816-2.368-4.224-3.584 1.376 1.216 2.784 2.432 4.224 3.584zM122.24 375.872c-0.832-1.28-1.664-2.56-2.464-3.872h272.48c3.2-5.184 6.112-10.496 8.672-16-1.28 2.688-2.624 5.376-4.032 8h-281.76c2.176 4.064 4.576 8 7.104 11.872v0zM97.792 312c-0.192-1.312-0.384-2.656-0.544-4 0.16 1.344 0.352 2.656 0.544 4zM97.216 308h65.088c0 0 0 0 0 0 1.184-2.912 2.752-5.6 4.704-8 0 0 0 0 0 0h-70.592c-0.192-2.656-0.32-5.312-0.384-8h80.448c0 0 0 0 0 0 4.608-2.56 9.888-4 15.488-4v-4h-95.936c0.064-2.688 0.192-5.344 0.384-8h95.552v-8h-94.784c0.32-2.688 0.736-5.344 1.184-8h93.568v-8h-91.936c-2.656 11.68-4.064 23.744-4.064 36 0 6.752 0.416 13.408 1.216 20zM161.632 309.952c0 0 0-0.032 0-0.032s0 0.032 0 0.032zM168.032 298.816c0 0 0 0 0 0s0 0 0 0zM169.088 297.664c0 0 0 0 0 0s0 0 0 0zM170.208 296.576c0 0 0 0 0 0s0 0 0 0zM171.36 295.552c0 0 0.032-0.032 0.032-0.032s-0.032 0.032-0.032 0.032zM172.544 294.592c0 0 0.032-0.032 0.064-0.032s-0.032 0.032-0.064 0.032zM173.824 293.664c0 0 0.032-0.032 0.064-0.032-0.032 0-0.032 0.032-0.064 0.032zM175.136 292.8c0 0 0.032 0 0.032-0.032s-0.032 0-0.032 0.032zM192 244v-8h-87.392c-0.896 2.656-1.728 5.312-2.496 8h89.888zM102.112 244c-0.384 1.312-0.736 2.624-1.056 3.936 0.352-1.312 0.704-2.624 1.056-3.936zM101.024 248c-0.352 1.312-0.672 2.656-0.96 3.968 0.32-1.344 0.64-2.656 0.96-3.968zM106.048 231.968c0.48-1.312 0.992-2.656 1.536-3.968h84.416v-8h-80.928c1.28-2.688 2.624-5.376 4.032-8h76.864v-8h-72.224c0.8-1.312 1.632-2.592 2.464-3.872-6.592 10.016-12 20.672-16.16 31.808v0zM104.608 236c0.448-1.344 0.928-2.656 1.44-4-0.48 1.312-0.96 2.656-1.44 4zM192 196v-8h-60.928c-3.104 3.84-5.984 7.808-8.704 11.904 0.864-1.312 1.76-2.592 2.656-3.904h66.944zM131.104 188c2.208-2.72 4.48-5.408 6.848-8h54.048v-8h-46.208c1.408-1.344 2.848-2.656 4.288-3.904-2.464 2.176-4.864 4.448-7.232 6.784-4.192 4.192-8.096 8.576-11.776 13.12zM150.4 167.808c1.472-1.312 2.976-2.56 4.48-3.808h37.12v-8h-26.496c3.136-2.144 6.304-4.192 9.568-6.080-8.704 5.12-16.96 11.104-24.672 17.888zM192 148v-6.72c-5.792 2.528-11.424 5.408-16.864 8.608 1.088-0.64 2.176-1.28 3.296-1.888h13.6zM304 64h-96c-8.8 0-16 7.2-16 16s7.2 16 16 16h96c8.8 0 16-7.2 16-16s-7.2-16-16-16zM320 148h13.6c1.088 0.608 2.208 1.248 3.264 1.888-5.472-3.2-11.072-6.080-16.864-8.608v6.72zM336.928 149.92c3.232 1.92 6.432 3.936 9.536 6.080h-26.496v8h37.12c-6.4-5.248-13.152-9.952-20.192-14.080zM357.12 164c1.504 1.248 3.008 2.496 4.48 3.808-1.472-1.312-2.976-2.56-4.48-3.808zM361.92 168.064c1.44 1.28 2.848 2.56 4.256 3.904-1.408-1.344-2.816-2.624-4.256-3.904zM366.208 172h-46.208v8h54.048c-1.6-1.728-3.232-3.456-4.896-5.152-0.96-0.96-1.952-1.92-2.944-2.848zM380.896 188c-2.176-2.72-4.48-5.376-6.848-8 2.368 2.592 4.672 5.248 6.848 8zM389.76 200.16c0.832 1.28 1.664 2.56 2.464 3.84-0.8-1.28-1.632-2.56-2.464-3.84zM386.976 196c0.896 1.28 1.792 2.56 2.656 3.872-0.864-1.312-1.728-2.592-2.656-3.872zM304 0h-96c-8.8 0-16 7.2-16 16s7.2 16 16 16h96c8.8 0 16-7.2 16-16s-7.2-16-16-16z" />
<glyph unicode="&#xe062;" glyph-name="lease" d="M240.080 84.354c-33.139-33.14-86.886-33.124-120.025 0-33.154 33.169-33.154 86.893 0 120.047l135.726 135.733v107.716h-255.781v-448.135h383.156v213.035l-7.344 7.329-135.732-135.725zM141.614 108.624l5.455-5.454h68.67l5.987 5.973v29.254l4.99 4.997h28.606l5.683 5.699-4.221 27.485 6.155 6.156 28.721-4.723 5.439 5.438-5.058 27.608 8.715 8.715 44.307 0.031 28.889 28.903c36.598-9.736 77.232-0.365 105.938 28.34 42.859 42.867 42.859 112.36-0.015 155.236-42.861 42.859-112.354 42.859-155.214 0-28.065-28.066-37.634-67.527-28.964-103.456l-154.083-154.076v-66.126zM411.953 364.344c-14.443 14.445-14.459 37.863 0 52.314 14.444 14.452 37.862 14.437 52.308-0.008 14.443-14.443 14.459-37.862 0.015-52.314-14.461-14.451-37.879-14.436-52.323 0.008z" />
<glyph unicode="&#xe063;" glyph-name="play" d="M490.594 399.946c-71.816 10.325-151.166 16.054-234.593 16.054-83.43 0-162.778-5.729-234.597-16.054-13.765-53.863-21.404-113.375-21.404-175.946 0-62.57 7.639-122.083 21.404-175.945 71.819-10.326 151.168-16.055 234.597-16.055 83.427 0 162.776 5.729 234.593 16.055 13.766 53.862 21.406 113.375 21.406 175.945 0 62.571-7.64 122.083-21.406 175.946zM192.001 128v192l160-96-160-96z" />
<glyph unicode="&#xe064;" glyph-name="camera" d="M152 176c0-57.438 46.562-104 104-104s104 46.562 104 104-46.562 104-104 104-104-46.562-104-104zM480 352h-112c-8 32-16 64-48 64h-128c-32 0-40-32-48-64h-112c-17.6 0-32-14.4-32-32v-288c0-17.6 14.4-32 32-32h448c17.6 0 32 14.4 32 32v288c0 17.6-14.4 32-32 32zM256 34c-78.425 0-142 63.574-142 142s63.575 142 142 142c78.426 0 142-63.575 142-142s-63.573-142-142-142zM480 256h-64v32h64v-32z" />
<glyph unicode="&#xe065;" glyph-name="book" d="M448 416v-416h-336c-26.511 0-48 21.49-48 48s21.489 48 48 48h304v384h-320c-35.199 0-64-28.8-64-64v-384c0-35.2 28.801-64 64-64h384v448h-32zM128 64h288v-32h-288z" />
<glyph unicode="&#xe066;" glyph-name="bank" d="M480.535 288.397v19.776l-205.37 138.543h-37.117l-206.362-138.544v-19.776h448.849zM175.063 256.038v-158.87h58.126v158.87h-58.126zM65.12 256.038v-158.87h58.134v158.87h-58.134zM388.949 256.038v-158.87h58.118v158.87h-58.118zM282.998 256.038v-158.87h58.135v158.87h-58.135zM32.344 31.768h447.524v31.601h-447.524v-31.601zM0.602-0.383v-31.617h512v31.617h-512z" />
<glyph unicode="&#xe067;" glyph-name="undo" d="M288 355.808v124.192l192-192-192-192v126.912c-223.36 5.248-213.792-151.904-156.928-254.912-140.352 151.712-110.56 394.784 156.928 387.808z" />
<glyph unicode="&#xe068;" glyph-name="reply" d="M224 92.192v-124.192l-192 192 192 192v-126.912c223.36-5.248 213.792 151.904 156.928 254.912 140.352-151.712 110.56-394.784-156.928-387.808z" />
<glyph unicode="&#xe069;" glyph-name="box-add" d="M416 448h-320l-96-96v-336c0-8.837 7.163-16 16-16h480c8.836 0 16 7.163 16 16v336l-96 96zM256 64l-160 128h96v96h128v-96h96l-160-128zM77.255 384l32 32h293.489l32-32h-357.489z" />
<glyph unicode="&#xe06a;" glyph-name="bank1" d="M1.46-34.299h510.185v18.701h-510.185v-18.701zM9.519 278.004c0 0 493.31 0 494.043 0 11.9 5.233 11.367 16.392 0.233 23.834-11.167 7.442-247.688 178.162-247.688 178.162s-234.671-170.72-246.588-178.162c-11.892-7.442-12.642-18.6 0-23.834zM256.107 395.707c19.717 0 35.734-16 35.734-35.717s-16.017-35.734-35.734-35.734c-19.709 0-35.692 16.017-35.692 35.734s15.983 35.717 35.692 35.717zM21.844 10.535h469.4v19.985h-469.4v-19.985zM41.419 76.4v-22.233h102.035v22.233h-19.984v159.12h19.984v22.517h-102.035v-20.5h19.983v-161.137h-19.983zM204.922 76.4v-22.233h102.036v22.233h-19.367v160.37h19.967v19.984h-102.027v-19.217h19.967v-161.137h-20.576zM367.176 76.4v-22.233h102.019v22.233h-18.767v160.37h19.983v19.984h-102.052v-19.217h20v-161.137h-21.183z" />
<glyph unicode="&#xe06b;" glyph-name="furniture" d="M213.433 169.758v20.668c0 11.434 9.267 20.684 20.683 20.684v12.766h-203.824l152.941 256.124h141.35l157.667-256.125h-67.2v-26.801c8.851-2.332 15.5-10.049 15.5-19.633 0-11.416-9.267-20.684-20.667-20.684-11.416 0-20.684 9.268-20.684 20.684 0 9.584 6.667 17.301 15.518 19.633v26.801h-129.235v-12.766c11.418 0 20.668-9.25 20.668-20.684v-20.668c0 0 63.332-24.566 63.332-81.434-0.933-40.082-23.916-76.516-36.732-93.865l0.066-0.018c0 0-15.2-23.449-31.334-26.449-14.516 0-25.766 0-32.633 0-4.733 0-7.45 0-7.45 0-6.858 0-18.108 0-32.625 0-8.65 1.617-16.925 9.033-22.858 15.65h-0.142c0 0-45.659 49.115-45.659 104.682 0.001 55.57 63.318 81.435 63.318 81.435z" />
<glyph unicode="&#xe06c;" glyph-name="file_word" d="M367.518 481h-315.705c-10.233 0-18.533-8.3-18.533-18.517v-474.94c0-10.242 8.3-18.543 25.534-18.543h401.372c10.234 0 18.534 8.301 18.534 18.543v382.272l-111.202 111.185zM340.296 59.029h-50.168l-34.128 151.354-38.147-151.354h-54.419l-56.546 255.941h55.697l28.908-159.005 38.557 159.005h53.275l33.163-159.005 25.506 113.089h-22.106v45.916h85.224l-64.816-255.941zM354.268 360.865l-0.1 99.734 99.701-99.734h-99.601z" />
<glyph unicode="&#xe06d;" glyph-name="file_excel" d="M367.518 481h-315.705c-10.233 0-18.533-8.3-18.533-18.517v-474.94c0-10.242 8.3-18.543 25.534-18.543h401.372c10.234 0 18.534 8.301 18.534 18.543v382.272l-111.202 111.185zM311.698 58l-55.698 83.285-25.078-37.497h30.278v-45.788h-131.12l91.487 134.768-81.081 121.232h67.644l47.87-70.516 47.866 70.516h67.646l-81.082-121.232 91.489-134.768h-70.221zM354.268 360.865l-0.1 99.734 99.701-99.734h-99.601z" />
<glyph unicode="&#xe06e;" glyph-name="file_openoffice" d="M300.384 245.344c29.28 18.944 66.24 22.208 94.304-2.208-33.6 3.616-70.752-2.976-94.176-38.208-24.48 33.44-61.472 40.768-95.232 36.544 27.776 25.888 65.504 22.208 95.104 3.872zM316.928 122.048c-23.424-13.856-43.872-36.064-58.4-63.936-35.104 42.016-84.608 57.152-131.072 51.072-12.704-2.144-25.248-6.304-38.112-6.912 44.544 48.704 110.72 54.112 163.008 24.928 27.648 23.616 59.904 39.456 93.28 38.464 24.064 0.192 49.92-3.232 70.24-21.536-33.472-0.544-68.16-2.56-98.944-22.080v0zM458.912 365.472c-11.104 15.136-26.592 32.864-43.584 49.856s-34.72 32.48-49.856 43.584c-25.792 18.912-38.304 21.088-45.472 21.088h-248c-22.048 0-40-17.952-40-40v-432c0-22.048 17.952-40 40-40h368c22.048 0 40 17.952 40 40v312c0 7.168-2.176 19.68-21.088 45.472v0zM392.672 392.672c15.36-15.36 27.392-29.184 36.288-40.672h-76.992v76.96c11.488-8.896 25.344-20.928 40.672-36.288v0h0.032zM448 8c0-4.352-3.648-8-8-8h-368c-4.32 0-8 3.648-8 8v432c0 4.32 3.68 8 8 8 0 0 247.968 0 248 0v-112c0-8.832 7.168-16 16-16h112v-312z" />
<glyph unicode="&#xe06f;" glyph-name="file_normal" d="M367.518 481h-315.705c-10.233 0-18.533-8.3-18.533-18.517v-474.94c0-10.242 8.3-18.543 25.534-18.543h401.372c10.234 0 18.534 8.301 18.534 18.543v382.272l-111.202 111.185zM95.75 288h225.5v-32h-225.5v32zM416.25 64h-320.5v32h320.5v-32zM416.25 128h-320.5v32h320.5v-32zM416.25 192h-320.5v32h320.5v-32zM354.268 360.865l-0.1 99.734 99.701-99.734h-99.601z" />
<glyph unicode="&#xe070;" glyph-name="file_view" d="M367.518 481h-315.705c-10.233 0-18.533-8.3-18.533-18.517v-474.94c0-10.242 8.3-18.543 25.534-18.543h401.372c10.234 0 18.534 8.301 18.534 18.543v382.272l-111.202 111.185zM409.844 42.669c-9.71-9.71-25.568-9.71-35.278 0l-86.742 86.742c-19.42-12.948-43.046-20.715-67.969-20.715-68.294 0-123.317 55.348-123.317 123.317s55.023 122.992 123.317 122.992c67.969 0 122.992-55.023 122.992-122.992 0-24.923-7.445-47.903-20.068-67.323l87.065-87.066c9.385-9.709 9.385-25.568 0-34.955zM354.268 360.865l-0.1 99.734 99.701-99.734h-99.601zM219.854 318.108c-47.578 0-86.094-38.84-86.094-86.095s38.517-86.094 86.094-86.094c47.255 0 85.771 38.839 85.771 86.094s-38.516 86.095-85.771 86.095z" />
<glyph unicode="&#xe071;" glyph-name="note" d="M371.455 410.636h-50.176c0 1.539 0 2.562 0 4.098 0 35.839-29.184 65.023-65.535 65.023-35.84 0-65.023-29.184-65.023-65.023 0-1.536 0-2.559 0-4.098h-50.176c-8.707 0-15.364-6.656-15.364-15.359v-34.305c0-8.703 6.657-15.359 15.364-15.359h230.91c8.191 0 15.359 6.656 15.359 15.359v34.305c0 8.703-7.168 15.359-15.359 15.359v0 0zM255.744 379.917c-18.945 0-34.305 15.871-34.305 34.817 0 18.945 15.36 34.304 34.305 34.304 19.453 0 34.816-15.359 34.816-34.304 0.001-18.946-15.363-34.817-34.816-34.817v0 0zM466.686 412.687h-51.199v-87.043c0-8.703-7.168-15.359-15.871-15.359h-287.743c-8.195 0-15.363 6.656-15.363 15.359v87.043h-51.199c-8.703 0-15.359-6.657-15.359-11.364v-413.695c0-12.703 6.656-19.359 15.359-19.359h421.375c8.707-0.512 15.363 6.656 15.363 19.359v413.695c0 4.707-6.656 11.364-15.363 11.364v0 0zM382.721 92.589l-60.418-60.418h-178.176c-8.192 0-15.36 6.656-15.36 15.363v190.977c0 8.703 7.168 15.359 15.36 15.359h223.23c8.707 0 15.363-6.656 15.363-15.359v-145.922h0.001z" />
<glyph unicode="&#xe072;" glyph-name="cash2" d="M508.418 307.227c-14.852-36.867-72.195-64-140.289-64-68.609 0-125.953 27.133-140.289 64-2.559-5.633-3.582-11.777-3.582-17.922 0-12.289 4.605-24.062 12.797-34.305 19.457-8.703 35.328-19.453 46.082-32.254 23.551-10.242 52.734-15.871 84.992-15.871 79.359 0 143.871 36.863 143.871 82.43 0 6.144-1.535 12.289-3.582 17.922zM508.418 255c-14.852-36.863-72.195-64.512-140.289-64.512-26.625 0-51.711 4.098-73.219 11.266 2.562-6.145 3.586-12.289 3.586-18.945 0-6.145-1.023-11.773-2.559-17.406 20.992-7.168 45.566-11.266 72.191-11.266 79.36 0 143.872 36.863 143.872 82.433 0 6.145-1.535 12.285-3.582 18.43zM508.418 202.266c-14.852-36.352-72.195-64-140.289-64-26.113 0-50.688 4.094-71.68 10.75 1.535-5.117 2.047-9.727 2.047-14.848 0-7.168-1.023-14.336-3.586-20.992 21.508-7.168 46.082-11.262 73.219-11.262 79.359 0 143.871 36.863 143.871 82.43 0 6.144-1.535 12.289-3.582 17.922zM508.418 150.043c-14.852-36.867-72.195-64.516-140.289-64.516-26.113 0-50.688 4.098-71.68 10.754 1.535-4.609 2.047-9.727 2.047-14.848 0-7.168-1.023-13.824-3.586-20.48 21.508-7.68 46.082-11.777 73.219-11.777 79.359 0 143.871 36.867 143.871 82.434 0 6.656-1.535 12.288-3.582 18.433zM143.359 88.090c-68.093 0-125.437 27.648-140.289 64-2.047-5.633-3.070-11.778-3.070-17.922 0-45.566 64-82.43 143.359-82.43 79.871 0 143.872 36.863 143.872 82.43 0 6.145-1.023 12.289-3.582 17.922-14.337-36.352-71.68-64-140.29-64zM143.359 35.352c-68.093 0-125.437 27.648-140.289 64.515-2.047-6.144-3.070-12.289-3.070-18.433 0-45.567 64-82.434 143.359-82.434 79.871 0 143.872 36.867 143.872 82.434 0 6.145-1.023 12.289-3.582 18.434-14.337-36.868-71.68-64.516-140.29-64.516zM143.359 261.656c-79.359 0-143.359-35.328-143.359-78.847s64-78.848 143.359-78.848c79.871 0 143.872 35.328 143.872 78.848s-64.001 78.847-143.872 78.847zM512 337.945c0-43.52-64.512-78.848-143.871-78.848-79.871 0-143.871 35.328-143.871 78.848s64 78.336 143.871 78.336c79.359 0 143.871-34.816 143.871-78.336z" />
<glyph unicode="&#xe073;" glyph-name="cash3" d="M496.641 96.256h-23.039l-20.48 236.031c0 8.191-6.656 14.848-14.848 14.848h-81.41v30.21h48.129c8.191 0 15.359 7.168 15.359 15.36v71.679c0 8.192-7.168 14.848-15.359 14.848h-166.915c-8.703 0-15.359-6.656-15.359-14.848v-71.679c0-8.192 6.656-15.36 15.359-15.36h47.617v-30.21h-210.941c-8.195 0-14.852-6.656-14.852-14.848l-20.476-236.031h-24.578c-8.192 0-14.848-7.168-14.848-15.36v-96.77c0-8.703 6.656-15.359 14.848-15.359h481.793c8.191 0 15.359 6.656 15.359 15.359v96.77c0 8.192-7.168 15.36-15.359 15.36v0 0zM269.824 416.163c-8.703 0-15.359 7.168-15.359 15.359 0 8.703 6.656 15.359 15.359 15.359h103.422c8.195 0 15.363-6.656 15.363-15.359 0-8.191-7.168-15.359-15.363-15.359h-103.422zM369.152 287.111c9.215 0 16.895-7.168 16.895-16.383s-7.68-16.895-16.895-16.895-16.383 7.68-16.383 16.895 7.169 16.383 16.383 16.383v0 0zM303.105 192.393c-9.219 0-16.387 7.68-16.387 16.895 0 9.219 7.168 16.387 16.387 16.387 9.727 0 16.895-7.168 16.895-16.387 0-9.216-7.168-16.895-16.895-16.895v0 0zM320 146.311c0-9.215-7.168-16.895-16.383-16.895-9.73 0-16.898 7.68-16.898 16.895 0 9.219 7.168 16.387 16.898 16.387 9.215-0.001 16.383-7.169 16.383-16.387v0 0zM303.105 253.834c-9.219 0-16.387 7.68-16.387 16.895s7.168 16.383 16.387 16.383c9.727 0 16.895-7.168 16.895-16.383s-7.168-16.895-16.895-16.895v0 0zM369.152 192.393c-9.215 0-16.383 7.68-16.383 16.895 0 9.219 7.168 16.387 16.383 16.387s16.895-7.168 16.895-16.387c0-9.216-7.68-16.895-16.895-16.895v0 0zM386.047 146.311c0-9.215-7.68-16.895-16.895-16.895s-16.383 7.68-16.383 16.895c0 9.219 7.168 16.387 16.383 16.387s16.895-7.169 16.895-16.387v0 0zM97.281 268.24c0 8.703 7.168 15.871 15.36 15.871h93.183c8.703 0 15.36-7.168 15.36-15.871v-29.184c0-9.215-6.657-16.383-15.36-16.383h-93.183c-8.192 0-15.36 7.168-15.36 16.383v29.184zM464.383 31.232h-417.278c-8.195 0-14.848 6.656-14.848 14.336 0 8.191 6.652 14.848 14.848 14.848h417.277c8.191 0 14.848-6.656 14.848-14.848 0-7.679-6.656-14.336-14.847-14.336v0 0z" />
<glyph unicode="&#xe074;" glyph-name="cash4" d="M256.002 477.621c-141.941 0-255.156-113.215-255.156-255.156 0-140.25 113.215-253.465 255.156-253.465 140.25 0 255.152 113.215 255.152 253.465 0 141.941-114.902 255.156-255.152 255.156v0 0zM354.006 80.523c-21.965-20.273-49-28.723-81.105-28.723-28.727 0-54.075 10.137-76.042 32.105-21.965 20.276-35.485 52.383-38.864 96.316h-30.415c-1.691 0-3.382 1.688-3.382 6.758 0 3.379 1.691 8.449 3.382 13.52 3.379 6.758 6.758 8.449 8.446 8.449h18.59v8.449c0 6.758 1.687 16.895 1.687 28.723h-28.723c-1.691 0-3.382 1.691-3.382 6.762 0 3.379 1.691 8.449 3.382 13.516 3.379 6.762 6.758 10.141 8.446 10.141h21.968c10.141 79.418 49.004 118.285 113.215 118.285 28.727 0 54.074-6.762 74.352-21.969 20.273-15.207 32.105-33.795 32.105-55.761 0-6.762-3.383-13.52-8.449-18.59-5.070-5.066-10.141-6.758-16.898-6.758-8.449 0-13.52 1.691-16.898 5.070-5.070 3.379-8.449 10.137-11.828 18.586-3.379 10.141-10.141 18.59-15.207 25.348-6.762 5.070-16.898 8.449-32.105 8.449-16.898 0-28.727-6.758-38.868-18.59-8.449-11.828-13.515-30.414-16.894-54.070h74.348c3.379 0 3.379-3.379 3.379-6.758 0-3.383 0-8.449-3.379-15.211-3.379-5.066-5.070-8.449-6.758-8.449h-69.282v-21.965c0-6.758 0-11.828 0-15.207h76.040c3.379 0 3.379-1.691 3.379-5.070 0-5.069 0-10.141-3.379-15.207-3.379-5.070-5.070-8.449-6.758-8.449h-67.59c5.066-55.762 21.965-82.801 52.383-82.801 11.828 0 21.965 3.379 30.414 8.449 10.137 5.070 18.586 18.59 27.035 37.176 5.070 13.52 10.141 21.969 13.52 23.656 5.070 3.379 8.449 5.070 13.52 5.070 8.445 0 16.895-1.691 21.965-6.758 5.070-6.762 6.758-13.52 6.758-23.66-0.003-21.964-10.139-42.242-32.108-60.832v0 0z" />
<glyph unicode="&#xe075;" glyph-name="user_landlord" d="M501.538-21.538c0 70.68-91.481 129.154-210.462 138.87v28.938c38.654 21.782 70.155 76.046 70.155 130.347 0 87.165 0 157.845-105.23 157.845s-105.23-70.68-105.23-157.845c0-54.298 31.499-108.563 70.155-130.347v-28.938c-118.981-9.716-210.463-68.19-210.463-138.87h219.898l-28.063 70.155 52.615 52.615 52.615-52.615-28.063-70.155h222.072z" />
<glyph unicode="&#xe076;" glyph-name="user_tenant" d="M291.077 117.33v28.938c38.654 21.782 70.155 76.046 70.155 130.347 0 87.165 0 157.845-105.23 157.845s-105.23-70.68-105.23-157.845c0-54.299 31.499-108.563 70.155-130.347v-28.938c-118.981-9.716-210.463-68.19-210.463-138.87h491.077c0 70.68-91.481 129.154-210.462 138.87z" />
<glyph unicode="&#xe077;" glyph-name="users" d="M384 94.688v26.4c35.232 19.872 64 69.376 64 118.912 0 79.52 0 144-96 144s-96-64.48-96-144c0-49.536 28.736-99.040 64-118.912v-26.4c-108.544-8.864-192-62.208-192-126.688h448c0 64.48-83.456 117.824-192 126.688zM103.744 172c-6.784-2.464-13.312-5.152-19.552-8h153.024c-1.216 2.656-2.4 5.312-3.488 8h-129.984zM13.6 108c-1.696-2.624-3.232-5.28-4.608-8h186.688c6.144 2.848 12.448 5.504 18.976 8h-201.088zM43.744 140c-3.36-2.592-6.528-5.248-9.568-8h221.856c-1.92 2.592-3.776 5.28-5.568 8h-206.752zM168.352 188c-13.568-1.984-26.656-4.672-39.104-8h101.44c-0.96 2.656-1.824 5.312-2.656 8h-59.648zM192 204v-8h33.728c-0.704 2.656-1.312 5.312-1.888 8h-31.84zM187.232 220c1.568-1.024 3.168-2.016 4.768-2.912v-5.088h30.304c-0.448 2.656-0.8 5.344-1.12 8h-33.984zM0.96 76c-0.416-2.656-0.704-5.312-0.864-8h144.032c3.264 2.72 6.688 5.408 10.272 8h-153.44zM55.008 148h190.56c-0.768 1.344-1.536 2.688-2.304 4.064-0.704 1.312-1.408 2.624-2.112 3.936h-172.864c-4.64-2.56-9.056-5.216-13.28-8zM128.16 364c-0.064-2.656-0.096-5.312-0.096-8h106.848c0.128 0.288 0.256 0.576 0.384 0.896 1.12 2.432 2.336 4.8 3.584 7.104h-110.72zM5.376 92c-1.024-2.624-1.92-5.312-2.656-8h163.488c4.352 2.784 8.864 5.44 13.536 8h-174.368zM148.576 452h150.816c-2.24 2.848-4.736 5.536-7.488 8h-135.84c-2.752-2.464-5.248-5.152-7.488-8zM19.264 116h219.040c8.192 2.432 16.608 4.64 25.184 6.528-0.416 0.48-0.8 0.96-1.216 1.472h-236.192c-2.432-2.624-4.704-5.28-6.816-8zM168.16 236c2.72-2.848 5.536-5.536 8.416-8h43.872c-0.192 2.656-0.32 5.344-0.384 8h-51.904zM155.136 252c1.92-2.752 3.936-5.44 6.016-8h58.88c0 2.688 0 5.344 0 8h-64.864zM136.16 428c-0.864-2.592-1.6-5.248-2.304-8h180.224c-0.672 2.752-1.44 5.408-2.304 8h-175.648zM132.16 412c-0.48-2.624-0.928-5.28-1.312-8h148c5.728 3.136 11.904 5.792 18.496 8h-165.184zM128.704 380c-0.128-2.624-0.256-5.312-0.32-8h115.36c1.856 2.784 3.84 5.44 5.92 8h-120.96zM129.888 396c-0.256-2.624-0.512-5.28-0.704-8h127.84c2.944 2.848 6.048 5.536 9.344 8h-136.48zM187.712 476c-7.776-1.984-14.56-4.672-20.416-8h113.408c-5.888 3.328-12.672 6.016-20.448 8h-72.512zM145.408 268c1.44-2.72 2.944-5.408 4.512-8h70.144c0.032 2.688 0.064 5.344 0.096 8h-74.752zM143.2 444c-1.472-2.56-2.816-5.216-4-8h169.6c-1.184 2.784-2.528 5.44-4 8h-161.6zM132.864 300c0.704-2.688 1.536-5.344 2.368-8h85.856c0.16 2.688 0.384 5.344 0.608 8h-88.864zM138.112 284c1.056-2.72 2.176-5.376 3.36-8h78.848c0.096 2.688 0.192 5.344 0.288 8h-82.528zM128 348c0-2.656 0-5.312 0-8h100.96c0.8 2.72 1.696 5.376 2.688 8h-103.616zM128.064 332c0.096-2.656 0.256-5.344 0.512-8h96.448c0.512 2.688 1.12 5.376 1.76 8h-98.72zM129.536 316c0.416-2.688 0.864-5.344 1.44-8h91.584c0.32 2.688 0.672 5.344 1.088 8h-94.112z" />
<glyph unicode="&#xe078;" glyph-name="stats2" d="M449.473 48.385c0-9.227-7.176-16.402-16.398-16.402h-65.488c-9.227 0-16.402 7.176-16.402 16.402v256.469c0 9.223 7.176 16.398 16.402 16.398h65.488c9.223 0 16.398-7.176 16.398-16.398v-256.469zM304.973 48.385c0-9.227-7.691-16.402-16.402-16.402h-66c-8.715 0-15.891 7.176-15.891 16.402v352.746c0 8.711 7.176 15.886 15.891 15.886h66c8.711 0 16.402-7.175 16.402-15.886v-352.746zM160.957 48.385c0-9.227-7.176-16.402-15.891-16.402h-66c-8.711 0-16.398 7.176-16.398 16.402v158.789c0 9.227 7.687 16.402 16.398 16.402h66c8.715 0 15.891-7.176 15.891-16.402v-158.789zM468.949 479.744h-425.898c-24.086 0-43.051-18.965-43.051-43.051v-424.875c0-24.086 18.965-43.562 43.051-43.562h425.898c23.574 0 43.051 19.477 43.051 36.562v424.875c0 31.086-19.477 50.051-43.051 50.051v0z" />
<glyph unicode="&#xe079;" glyph-name="stats1" d="M437.887 360.191l-24.574 26.625-168.45-181.761-68.605 65.539-137.883-146.481-37.375 35.231 171.16 182.93 70.656-67.586 137.727 148.48-26.621 28.672 124.926 28.16-40.961-119.809zM95.961 77.055c0 8.191-6.145 14.336-14.336 14.336h-67.289c-7.68 0-14.336-6.145-14.336-14.336v-94.207c0-8.191 6.656-14.336 14.336-14.336h67.289c8.191 0 14.336 6.145 14.336 14.336v94.207zM479.977 258.305c0 8.191-6.656 14.848-14.336 14.848h-67.543c-8.195 0-14.336-6.656-14.336-14.848v-275.457c0-8.191 6.141-14.336 14.336-14.336h67.543c7.68 0 14.336 6.145 14.336 14.336v275.457zM351.777 178.449c0 8.191-6.656 14.336-14.336 14.336h-67.547c-8.191 0-14.336-6.145-14.336-14.336v-195.602c0-8.191 6.145-14.336 14.336-14.336h67.547c7.68 0 14.336 6.145 14.336 14.336v195.602zM223.551 134.91c0 8.195-6.145 14.852-14.336 14.852h-62.543c-7.68 0-18.336-6.656-18.336-14.852v-152.062c0-8.191 10.656-14.848 18.336-14.848h62.543c8.191 0 14.336 6.656 14.336 14.848v152.062z" />
<glyph unicode="&#xe07a;" glyph-name="stats22" d="M493.566 448.16c-7.168 0-162.301 0-162.301 0-9.73 35.328-43.007 31.84-43.007 31.84-14.336 0-32.77 0-32.77 0s-17.922 0-32.258 0c0 0-33.277 3.488-43.007-31.84 0 0-155.133 0-162.301 0-6.656 0-17.922-5.121-17.922-17.406 0-3.074 0-1.027 0-4.609 0-3.586-6.488-27.040 31.91-57.274v-247.688c0-14.312 10.754-25.062 24.066-25.062h153.429c1.028-3.074 2.563-6.145 4.098-8.707l-72.703-72.703c-8.703-8.703-8.703-22.527 0-31.23s22.527-8.703 31.23 0l83.458 83.457h0.512l83.457-83.457c8.703-8.703 22.527-8.703 31.23 0s8.703 22.527 0 31.23l-72.703 72.703c2.047 2.562 3.070 5.633 4.094 8.707h153.434c13.312 0 24.062 10.75 24.062 24.062v247.688c38.403 31.234 32.426 54.688 32.426 58.274 0 3.582 0 1.535 0 4.609 0 12.285-11.777 17.406-18.434 17.406v0 0zM416.184 233.656l-43.52 43.52-111.617-111.617-75.262 63.488-50.176-62.977-34.304 27.137 78.336 98.816 79.871-67.582 82.945 82.941-44.031 44.035h117.758v-117.761z" />
<glyph unicode="&#xe07b;" glyph-name="sofa" d="M448 288c-35.36 0-64-28.64-64-64v-64h-256v64c0 35.36-28.64 64-64 64s-64-28.64-64-64v-128c0-35.36 28.64-64 64-64v-64h32l16 64h288l16-64h32v64c35.36 0 64 28.64 64 64v128c0 35.36-28.64 64-64 64zM160 233.984v-42.016h192v42.016c0 52.544 32 86.016 94.848 85.984-7.776 54.208-54.528 96-110.848 96h-160c-56.32 0-103.072-41.792-110.848-96 62.848 0 94.848-33.44 94.848-85.984z" />
<glyph unicode="&#xe07c;" glyph-name="copy" d="M320 352v128h-224l-96-96v-288h192v-128h320v384h-192zM96 434.745v-50.745h-50.745l50.745 50.745zM32 128v224h96v96h160v-96l-96-96v-128h-160zM288 306.745v-50.745h-50.745l50.745 50.745zM480 0h-256v224h96v96h160v-320z" />
<glyph unicode="&#xe07d;" glyph-name="googleplus2" d="M279.533 448c0 0-100.478 0-133.97 0-60.060 0-116.585-45.503-116.585-98.211 0-53.863 40.941-97.333 102.044-97.333 4.249 0 8.378 0.085 12.421 0.376-3.965-7.593-6.801-16.144-6.801-25.021 0-14.969 8.052-27.105 18.234-37.012-7.693 0-15.121-0.224-23.226-0.224-74.391 0.001-131.65-47.379-131.65-96.51 0-48.389 62.771-78.657 137.167-78.657 84.812 0 131.653 48.122 131.653 96.514 0 38.8-11.448 62.036-46.843 87.067-12.108 8.572-35.265 29.418-35.265 41.672 0 14.36 4.098 21.434 25.714 38.323 22.156 17.312 37.836 41.651 37.836 69.958 0 33.703-15.010 66.549-43.186 77.386h42.477l29.98 21.672zM232.74 120.271c1.063-4.486 1.642-9.103 1.642-13.814 0-39.1-25.196-69.655-97.487-69.655-51.421 0-88.558 32.552-88.558 71.65 0 38.321 46.063 70.222 97.482 69.666 12-0.127 23.184-2.058 33.335-5.345 27.913-19.413 47.938-30.381 53.586-52.502zM150.409 266.112c-34.519 1.032-67.318 38.613-73.276 83.93-5.958 45.333 17.185 80.021 51.694 78.995 34.505-1.037 67.319-37.407 73.279-82.729 5.953-45.33-17.195-81.229-51.697-80.196zM416 352v96h-32v-96h-96v-32h96v-96h32v96h96v32z" />
<glyph unicode="&#xe07e;" glyph-name="credit" d="M464 416h-416c-26.4 0-48-21.6-48-48v-288c0-26.4 21.6-48 48-48h416c26.4 0 48 21.6 48 48v288c0 26.4-21.6 48-48 48zM48 384h416c8.673 0 16-7.327 16-16v-48h-448v48c0 8.673 7.327 16 16 16zM464 64h-416c-8.673 0-16 7.327-16 16v144h448v-144c0-8.673-7.327-16-16-16zM64 160h32v-64h-32zM128 160h32v-64h-32zM192 160h32v-64h-32z" />
<glyph unicode="&#xe07f;" glyph-name="airplane" d="M384 160.016l-91.41 91.411 219.41 164.575-64.005 63.998-274.26-109.721-86.35 86.353c-24.89 24.889-59.651 30.853-77.251 13.254-17.599-17.599-11.634-52.363 13.255-77.25l86.343-86.342-109.732-274.291 63.995-64.003 164.595 219.434 91.413-91.414v-127.99h63.997l31.996 95.994 95.994 31.998v63.996l-127.99-0.002z" />
<glyph unicode="&#xe080;" glyph-name="paperplane" d="M224 128l196.832-70.24 91.168 398.688zM160 150.048l352 306.4-512-253.216zM224 94.016v-126.016l92.864 92.864z" />
<glyph unicode="&#xe081;" glyph-name="yahoo" d="M424 160l-7.429 208.010c-0.314 8.795 6.629 15.99 15.429 15.99h64c8.8 0 14.734-7.088 13.188-15.751l-37.188-208.249zM480 92c0-15.4-12.6-28-28-28h-8c-15.4 0-28 12.6-28 28v8c0 15.4 12.6 28 28 28h8c15.4 0 28-12.6 28-28v-8zM192 384c-106.039 0-192-71.634-192-160s85.961-160 192-160 192 71.635 192 160c0 88.366-85.961 160-192 160zM320 256h-37.131l-58.869-58.87v-37.13h48v-32h-128v32h48v37.13l-90.87 90.87h-21.031v32h95.803v-32h-21.032l53.13-53.13 16 16v37.13h96v-32z" />
<glyph unicode="&#xe082;" glyph-name="wink" d="M256-32c141.385 0 256 114.615 256 256s-114.615 256-256 256-256-114.615-256-256 114.615-256 256-256zM256 432c114.875 0 208-93.125 208-208s-93.125-208-208-208-208 93.125-208 208 93.125 208 208 208zM271.37 124.486c70.124 13.853 124.555 45.771 144.227 88.297-10.827-83.978-80.759-148.783-165.425-148.783-59.621 0-111.929 32.141-141.446 80.474 35.205-27.529 97.267-32.904 162.644-19.988zM320 304c0-26.51 14.327-48 32-48s32 21.49 32 48c0 26.51-14.327 48-32 48s-32-21.49-32-48zM176 294.25c-20.898 0-38.667-7.828-45.258-18.75-1.77 2.933-2.742 16.087-2.742 19.375 0 15.533 21.49 28.125 48 28.125s48-12.592 48-28.125c0-3.288-0.972-16.442-2.742-19.375-6.591 10.922-24.36 18.75-45.258 18.75z" />
<glyph unicode="&#xe083;" glyph-name="wondering" d="M256-32c141.385 0 256 114.615 256 256s-114.615 256-256 256-256-114.615-256-256 114.615-256 256-256zM256 432c114.875 0 208-93.125 208-208s-93.125-208-208-208-208 93.125-208 208 93.125 208 208 208zM372.87 179.19l11.244-38.388-218.504-64.001-11.244 38.388zM128 320c0 17.673 14.327 32 32 32s32-14.327 32-32c0-17.673-14.327-32-32-32s-32 14.327-32 32zM320 320c0 17.673 14.327 32 32 32s32-14.327 32-32c0-17.673-14.327-32-32-32s-32 14.327-32 32z" />
<glyph unicode="&#xe084;" glyph-name="gift" d="M464 319.92h-416c-8.848 0-16-7.152-16-16v-144c0-8.848 7.152-16 16-16h16v-160c0-8.848 7.152-16 16-16h352c8.848 0 16 7.152 16 16v160h16c8.848 0 16 7.152 16 16v144c0 8.848-7.152 16-16 16zM224 15.92c0-8.848-7.152-16-16-16h-96c-8.848 0-16 7.152-16 16v128c0 8.848 7.152 16 16 16h96c8.848 0 16-7.152 16-16v-128zM224 207.92c0-8.848-7.152-16-16-16h-128c-8.848 0-16 7.152-16 16v64c0 8.848 7.152 16 16 16h128c8.848 0 16-7.152 16-16v-64zM416 15.92c0-8.848-7.152-16-16-16h-96c-8.848 0-16 7.152-16 16v128c0 8.848 7.152 16 16 16h96c8.848 0 16-7.152 16-16v-128zM448 207.92c0-8.848-7.152-16-16-16h-128c-8.848 0-16 7.152-16 16v64c0 8.848 7.152 16 16 16h128c8.848 0 16-7.152 16-16v-64zM184.944 319.936h147.2c25.232 18.096 49.088 41.648 51.92 67.312 1.376 12.528-1.312 30.88-22 47.216-11.472 9.072-23.12 13.664-34.576 13.664-36.512 0-57.168-44.768-68.336-84.768-13.344 50.992-39.104 116.56-83.344 116.56-12.912 0-25.76-5.584-38.256-16.608-24.64-21.792-27.056-44.448-24.752-59.616 5.168-33.904 39.28-63.040 72.144-83.76zM327.488 409.728c3.536 0 8.096-2.112 13.168-6.144 8.256-6.496 7.792-10.528 7.664-11.856-1.536-14-27.792-36-58.416-54.16 9.008 38.736 23.728 72.16 37.584 72.16zM160.544 433.76c4.016 3.552 9.936 7.776 15.264 7.776 19.808 0 40.176-52 52.048-102.56-37.408 19.936-76.080 48.208-79.536 70.896-0.464 3.136-1.744 11.536 12.224 23.888z" />
<glyph unicode="&#xe600;" glyph-name="rentila_alt" d="M464 77.1v206c0 10.1-4.4 19.8-11.7 26.2l-181.8 164.6c-6.9 6-16.9 6-23.8 0l-185.1-164.5c-7.3-6.9-11.7-16.5-11.7-26.6v-297.9c0-9.7 8.1-17.7 17.7-17.7h285.9c9.7 0 17.7 8.1 17.7 17.7v74.6h75c9.7-0.1 17.8 7.6 17.8 17.6zM371.3 182c-0.4 14.5-3.6 28.6-9.7 42.3-5.6 13.3-14.5 25.8-25.8 37.5-10.5 10.5-23.4 19.4-37.5 25.4s-29.4 9.3-46 9.3c-16.1 0-31.4-3.2-46-9.3-14.5-6-27-14.5-37.9-25.4-10.9-10.5-19.4-23.4-25.4-37.5s-9.3-29.4-9.3-46c0-16.1 3.2-31.4 9.3-46 6-14.5 14.9-27 25.4-37.9 10.9-10.9 23.8-19.4 37.9-25.4s29.8-9.3 46-9.3h1.6l81-0.4v-55.6h-248.6v277.8l1.2 1.2 170.9 154 2.8-2.4 166.1-151.5v-187.4h-55.6v85.4l-0.4 1.2zM334.2 178.3v-82.6h-81.8c-11.3 0-22.2 2-32.3 6.5s-18.9 10.1-26.6 17.7c-7.7 7.7-13.3 16.5-17.7 26.6s-6.5 21-6.5 32.3c0 11.3 2 22.2 6.5 31.9s10.1 18.5 17.7 26.2c7.7 7.7 16.5 13.3 26.6 17.7s21 6.5 32.3 6.5 22.2-2 31.9-6.5c9.7-4.4 18.5-10.1 26.2-17.7 7.7-7.7 13.3-16.1 17.7-26.2 4-10.2 6-21.1 6-32.4z" />
<glyph unicode="&#xe601;" glyph-name="rentila" d="M244.5 470.5l-183.3-165c-7.2-6.5-11.3-15.6-11.3-25.3v-294.4c0-9.4 7.6-17 17-17h283.7c9.4 0 17 7.6 17 17v70.4h76.4c9.4 0 17 7.6 17 17v207c0 9.6-4.1 18.8-11.2 25.2l-182.5 165.1c-6.5 5.8-16.3 5.9-22.8 0zM248.3 103.7c-9.9 0-19.3 1.9-28.2 5.6s-16.6 8.9-23.1 15.4c-6.6 6.6-11.7 14.3-15.4 23.2s-5.6 18.3-5.6 28.2c0 9.9 1.9 19.3 5.6 27.9 3.7 8.7 8.9 16.3 15.4 22.9 6.6 6.6 14.3 11.7 23.1 15.4 8.9 3.7 18.3 5.6 28.2 5.6s19.2-1.9 27.9-5.6c8.7-3.7 16.3-8.9 22.9-15.4 6.6-6.6 11.7-14.2 15.4-22.9s5.6-18 5.6-27.9v-72.4h-71.8zM367.6 103.2v76.8h-0.1c-0.4 15.2-3.5 29.5-9.3 42.7-6.2 14.4-14.7 27-25.6 37.8-10.8 10.8-23.4 19.3-37.8 25.6-14.4 6.2-29.9 9.3-46.6 9.3-16.3 0-31.8-3.1-46.3-9.3-14.6-6.2-27.3-14.7-38.4-25.6-11-10.8-19.6-23.4-25.8-37.8s-9.3-29.9-9.3-46.6c0-16.3 3.1-31.8 9.3-46.3 6.2-14.6 14.8-27.3 25.8-38.3s23.8-19.6 38.4-25.8c14.5-6.2 30-9.3 46.3-9.3h72.4v-40.6h-223.8v256.5l159.1 145.1 158.3-144.3v-169.9h-46.6z" />
<glyph unicode="&#xe602;" glyph-name="heat_water" d="M479.985 323.624c-0.003 0.176-0.008 0.35-0.010 0.527-0.008 0.357-0.017 0.714-0.029 1.070-2.509 78.912-95.946 156.779-95.946 156.779s-93.439-77.867-95.945-156.781c-0.011-0.357-0.022-0.713-0.030-1.070-0.004-0.176-0.008-0.35-0.010-0.527-0.009-0.54-0.014-1.081-0.014-1.624 0-0.592 0.007-1.18 0.018-1.77 0.001-0.049 0.001-0.098 0.003-0.146 1.019-52.133 43.598-94.082 95.978-94.082s94.958 41.949 95.979 94.084c0.001 0.049 0.002 0.098 0.003 0.146 0.010 0.589 0.018 1.178 0.018 1.77 0 0.543-0.006 1.084-0.015 1.624v0zM447.987 320.815l-0.002-0.102c-0.329-16.822-7.133-32.583-19.156-44.387-12.036-11.818-27.958-18.326-44.829-18.326-3.115 0-6.198 0.223-9.231 0.66 34.764 20.712 58.054 58.676 58.054 102.081 0 4.864-0.295 9.659-0.863 14.37 10.068-18.485 15.516-35.7 16.001-50.907l0.001-0.036c0.008-0.237 0.013-0.473 0.020-0.711l0.007-0.362c0.007-0.364 0.012-0.73 0.012-1.094-0.001-0.397-0.006-0.792-0.014-1.186v0zM195.692 123.364v112.482c0 10.87-8.822 19.692-19.692 19.692-10.88 0-19.692-8.822-19.692-19.692v-112.482c-17.359-7.611-29.538-24.921-29.538-45.056 0-27.146 22.085-49.231 49.231-49.231s49.231 22.085 49.231 49.231c-0.001 20.135-12.181 37.445-29.54 45.056zM176 68.462c-5.435 0-9.846 4.411-9.846 9.846s4.411 9.846 9.846 9.846 9.846-4.411 9.846-9.846-4.411-9.846-9.846-9.846zM254.858 152.558l-0.089 250.673c0 43.431-35.338 78.769-78.769 78.769s-78.769-35.338-78.769-78.759l-0.098-250.683c-18.806-20.017-29.44-46.602-29.44-74.25-0.001-59.717 48.59-108.308 108.307-108.308s108.308 48.591 108.308 108.308c0 27.658-10.634 54.242-29.45 74.25zM176 9.385c-37.996 0-68.923 30.927-68.923 68.923 0 19.535 8.35 38.252 22.912 51.328 4.155 3.742 6.528 9.058 6.528 14.641l0.098 258.954c0 21.721 17.664 39.385 39.385 39.385s39.385-17.664 39.385-39.394l0.089-258.944c0-5.583 2.373-10.91 6.538-14.641 14.553-13.076 22.912-31.783 22.912-51.328-0.001-37.998-30.928-68.924-68.924-68.924z" />
<glyph unicode="&#xe603;" glyph-name="heat" d="M274.692 123.364v112.482c0 10.87-8.822 19.692-19.692 19.692-10.88 0-19.692-8.822-19.692-19.692v-112.482c-17.359-7.611-29.538-24.921-29.538-45.056 0-27.146 22.085-49.231 49.231-49.231s49.231 22.085 49.231 49.231c-0.001 20.135-12.181 37.445-29.54 45.056zM255 68.462c-5.435 0-9.846 4.411-9.846 9.846s4.411 9.846 9.846 9.846 9.846-4.411 9.846-9.846-4.411-9.846-9.846-9.846zM333.858 152.558l-0.089 250.673c0 43.431-35.338 78.769-78.769 78.769s-78.769-35.338-78.769-78.759l-0.098-250.683c-18.806-20.017-29.44-46.602-29.44-74.25-0.001-59.717 48.59-108.308 108.307-108.308s108.308 48.591 108.308 108.308c0 27.658-10.634 54.242-29.45 74.25zM255 9.385c-37.996 0-68.923 30.927-68.923 68.923 0 19.535 8.35 38.252 22.912 51.328 4.155 3.742 6.528 9.058 6.528 14.641l0.098 258.954c0 21.721 17.664 39.385 39.385 39.385s39.385-17.664 39.385-39.394l0.089-258.944c0-5.583 2.373-10.91 6.538-14.641 14.553-13.076 22.912-31.783 22.912-51.328-0.001-37.998-30.928-68.924-68.924-68.924z" />
<glyph unicode="&#xe604;" glyph-name="droplet" d="M447.97 163.249c-0.006 0.353-0.015 0.701-0.021 1.053-0.016 0.714-0.035 1.427-0.059 2.14-5.015 157.824-191.89 313.558-191.89 313.558s-186.877-155.734-191.89-313.561c-0.022-0.715-0.044-1.426-0.060-2.141-0.007-0.352-0.015-0.701-0.021-1.053-0.018-1.080-0.028-2.162-0.028-3.248 0-1.184 0.014-2.361 0.035-3.539 0.002-0.098 0.003-0.195 0.007-0.293 2.039-104.266 87.198-188.165 191.957-188.165 104.758 0 189.916 83.899 191.959 188.168 0.002 0.098 0.004 0.196 0.005 0.293 0.021 1.178 0.036 2.357 0.036 3.539 0 1.086-0.012 2.168-0.030 3.249zM383.975 157.63l-0.004-0.203c-0.659-33.643-14.266-65.167-38.313-88.774-24.071-23.636-55.915-36.653-89.658-36.653-6.231 0-12.397 0.447-18.462 1.319 69.528 41.423 116.108 117.352 116.108 204.161 0 9.728-0.59 19.317-1.726 28.74 20.136-36.97 31.032-71.4 32.001-101.813l0.002-0.072c0.016-0.474 0.026-0.946 0.039-1.422l0.014-0.724c0.014-0.728 0.024-1.459 0.024-2.189 0-0.792-0.010-1.581-0.025-2.37z" />
<glyph unicode="&#xe605;" glyph-name="fire" d="M160.504-32c-34.123 71.004-15.951 111.689 10.275 150.022 28.72 41.978 36.122 83.533 36.122 83.533s22.577-29.35 13.546-75.254c39.886 44.4 47.412 115.14 41.391 142.232 90.157-63.006 128.688-199.428 76.761-300.533 276.186 156.266 68.699 390.086 32.577 416.425 12.041-26.338 14.324-70.925-10-92.563-41.176 156.138-142.986 188.138-142.986 188.138 12.041-80.522-43.648-168.572-97.348-234.365-1.887 32.108-3.891 54.264-20.775 84.99-3.79-58.328-48.366-105.874-60.437-164.314-16.351-79.143 12.248-137.090 120.874-198.311z" />
<glyph unicode="&#xe606;" glyph-name="lightning" d="M192 480l-192-256h192l-128-256 448 320h-256l192 192z" />
<glyph unicode="&#xe607;" glyph-name="powercord" d="M512 338.75l-45.253 45.25-89.373-89.376-50.75 50.751 89.375 89.375-45.25 45.25-89.375-89.375-57.374 57.375-43.313-43.312 256.001-256.001 43.312 43.312-57.376 57.376zM137.374 105.373c82.884-82.881 192.597-18.181 259.646 37.732l-221.912 221.912c-55.912-67.048-120.614-176.761-37.734-259.644zM95.999 127.998l63.997-63.998-95.996-95.996-63.998 63.997z" />
<glyph unicode="&#xe900;" glyph-name="linkedin" d="M192 288h88.553v-45.391h1.266c12.32 22.097 42.479 45.391 87.421 45.391 93.473 0 110.76-58.188 110.76-133.867v-154.133h-92.305v136.639c0 32.592-0.667 74.513-48.014 74.513-48.074 0-55.41-35.493-55.41-72.146v-139.006h-92.271v288zM32 288h96v-288h-96v288zM128 368c0-26.51-21.49-48-48-48s-48 21.49-48 48c0 26.51 21.49 48 48 48s48-21.49 48-48z" />
<glyph unicode="&#xe901;" glyph-name="linkedin2" d="M464 480h-416c-26.4 0-48-21.6-48-48v-416c0-26.4 21.6-48 48-48h416c26.4 0 48 21.6 48 48v416c0 26.4-21.6 48-48 48zM192 64h-64v224h64v-224zM160 320c-17.7 0-32 14.3-32 32s14.3 32 32 32c17.7 0 32-14.3 32-32s-14.3-32-32-32zM416 64h-64v128c0 17.7-14.3 32-32 32s-32-14.3-32-32v-128h-64v224h64v-39.7c13.2 18.1 33.4 39.7 56 39.7 39.8 0 72-35.8 72-80v-144z" />
<glyph unicode="&#xe902;" glyph-name="googleplus" d="M162.9 251.3v-55.9h92.4c-3.7-24-27.9-70.3-92.4-70.3-55.6 0-101 46.1-101 102.9s45.4 102.9 101 102.9c31.7 0 52.8-13.5 64.9-25.1l44.2 42.6c-28.4 26.5-65.2 42.6-109.1 42.6-90.1-0.1-162.9-72.9-162.9-163s72.8-162.9 162.9-162.9c94 0 156.4 66.1 156.4 159.2 0 10.7-1.2 18.9-2.6 27h-153.8zM512 256h-48v48h-48v-48h-48v-48h48v-48h48v48h48z" />
<glyph unicode="&#xe903;" glyph-name="google-plus" d="M261.1 260.6v-87.8h145.2c-5.9-37.7-43.9-110.4-145.2-110.4-87.4 0-158.7 72.4-158.7 161.6s71.3 161.6 158.7 161.6c49.7 0 83-21.2 102-39.5l69.5 66.9c-44.6 41.8-102.4 67-171.5 67-141.5 0-256-114.5-256-256s114.5-256 256-256c147.7 0 245.8 103.9 245.8 250.1 0 16.8-1.8 29.6-4 42.4l-241.8 0.1z" />
<glyph unicode="&#xe904;" glyph-name="home9" d="M256 464l-256-256 48-48 48 48v-240h128v96h64v-96h128v240l48-48 48 48-256 256zM132 0h-4v240l4 4v-244zM148 0h-8v252l8 8v-260zM164 0h-8v268l8 8v-276zM180 0h-8v284l8 8v-292zM196 96h-4v-96h-4v300l8 8v-212zM212 96h-8v220l8 8v-228zM228 96h-8v236l8 8v-244zM244 96h-8v252l8 8v-260zM260 96h-8v268l4 4 4-4v-268zM276 96h-8v260l8-8v-252zM292 96h-8v244l8-8v-236zM308 96h-8v228l8-8v-220zM324 0h-4v96h-4v212l8-8v-300zM340 0h-8v292l8-8v-284zM356 0h-8v276l8-8v-268zM372 0h-8v260l8-8v-252zM384 0h-4v244l4-4v-240z" />
<glyph unicode="&#xe905;" glyph-name="clipboard3" d="M464 416h-144c0 35.36-28.64 64-64 64s-64-28.64-64-64h-144c-8.832 0-16-7.168-16-16v-416c0-8.832 7.168-16 16-16h416c8.832 0 16 7.168 16 16v416c0 8.832-7.168 16-16 16zM256 448c17.664 0 32-14.336 32-32s-14.336-32-32-32c-17.664 0-32 14.336-32 32s14.336 32 32 32zM448 0h-384v384h64v-48c0-8.832 7.168-16 16-16h224c8.832 0 16 7.168 16 16v48h64v-384zM368 192h-224c-8.832 0-16 7.168-16 16s7.168 16 16 16h224c8.832 0 16-7.168 16-16s-7.168-16-16-16zM368 128h-224c-8.832 0-16 7.168-16 16s7.168 16 16 16h224c8.832 0 16-7.168 16-16s-7.168-16-16-16zM368 64h-224c-8.832 0-16 7.168-16 16s7.168 16 16 16h224c8.832 0 16-7.168 16-16s-7.168-16-16-16z" />
<glyph unicode="&#xe906;" glyph-name="clipboard2" d="M464 416h-144c0 35.36-28.64 64-64 64s-64-28.64-64-64h-144c-8.832 0-16-7.168-16-16v-416c0-8.832 7.168-16 16-16h416c8.832 0 16 7.168 16 16v416c0 8.832-7.168 16-16 16zM256 448c17.664 0 32-14.336 32-32s-14.336-32-32-32c-17.664 0-32 14.336-32 32s14.336 32 32 32zM448 0h-384v384h64v-48c0-8.832 7.168-16 16-16h224c8.832 0 16 7.168 16 16v48h64v-384zM224 50.752l-102.624 118.624 29.248 29.248 73.376-57.376 137.376 121.376 29.248-29.248z" />
<glyph unicode="&#xe907;" glyph-name="bars22" d="M320 352h-128v-384h128v384zM224 316v4h64v-4h-64zM224 300v8h64v-8h-64zM224 284v8h64v-8h-64zM224 268v8h64v-8h-64zM224 252v8h64v-8h-64zM224 236v8h64v-8h-64zM224 220v8h64v-8h-64zM224 204v8h64v-8h-64zM224 188v8h64v-8h-64zM224 172v8h64v-8h-64zM224 156v8h64v-8h-64zM224 140v8h64v-8h-64zM224 124v8h64v-8h-64zM224 108v8h64v-8h-64zM224 92v8h64v-8h-64zM224 76v8h64v-8h-64zM224 60v8h64v-8h-64zM224 44v8h64v-8h-64zM224 28v8h64v-8h-64zM224 12v8h64v-8h-64zM224 0v4h64v-4h-64zM0 192h128v-224h-128zM384 480h128v-512h-128z" />
<glyph unicode="&#xe908;" glyph-name="lamp7" d="M160 160c-0.128-53.024 42.976-64 96-64s95.872 10.976 96 64 63.872 71.648 64 160-71.648 160-160 160c-88.352 0-159.872-71.648-160-160s64.128-106.976 64-160zM256 64c-39.488 0-72.288 8.768-78.816 48.512-0.768-5.376-1.184-10.88-1.184-16.512 0-53.024 35.808-64 80-64s80 10.976 80 64c0 5.632-0.416 11.136-1.184 16.512-6.528-39.712-39.328-48.512-78.816-48.512zM256 0c-31.584 0-57.824 8.768-63.040 48.512-0.608-5.376-0.96-10.88-0.96-16.512 0-53.024 28.64-64 64-64s64 10.976 64 64c0 5.632-0.32 11.136-0.96 16.512-5.216-39.712-31.456-48.512-63.040-48.512z" />
<glyph unicode="&#xe909;" glyph-name="chart" d="M496 0h-112v16h-16v-16h-160v16h-16v-16h-112v16h-16v-16h-32v144h16v16h-16v112h16v16h-16v112h16v16h-16v64h-32v-512h512v48h-16zM220 284l-8-8v-126.048l8 8zM204 268l-8-8v-126.048l8 8zM188 125.952v132.064l-8 4v-133.152l7.264-3.616zM268 332l-8-8v-126.048l8 8zM236 300l-8-8v-126.048l8 8zM172 265.984l-8 4v-133.152l8-4zM252 316l-8-8v-126.048l8 8zM124 289.984l-8 4v-133.152l8-4zM92 305.984l-8 4v-133.152l8-4zM156 273.984l-8 4v-133.152l8-4zM108 297.984l-8 4v-133.152l8-4zM76 313.984l-8 4v-133.152l8-4zM284 348l-8-8v-126.048l8 8zM140 281.984l-8 4v-133.152l8-4zM412 316l-8-8v-170.72l8 12zM428 332l-8-8v-162.72l8 12zM444 348l-8-8v-154.72l8 12zM476 380l-8-8v-138.72l8 12zM460 364l-8-8v-146.72l8 12zM508 412l-8-8v-122.72l8 12zM492 396l-8-8v-130.72l8 12zM348 312l-8 5.344v-154.656l8-10.656zM332 322.656l-8 5.344v-144l8-10.656zM300 344l-8 5.344v-122.656l8-10.656zM316 333.344l-8 5.344v-133.344l8-10.656zM364 301.344l-8 5.344v-165.344l8-10.656zM396 300l-8-8v-178.72l8 12zM380 290.656l-8 5.344v-176l8-10.656zM384 64l-96 128-96-96-128 64v-128h448v224z" />
</font>
</defs>
</svg>
